Скачать через торрент The Soft Moon Zeros - 2012 ALAC, lossless бесплатно русская версия torrent активатор

Если у вас наблюдаются проблемы со скриншотами, переходом по ссылками, скачиванием торрентов - проблемы в блокировщике рекламы AdBlock. #хорошегоДня!


Статистика раздачи
Размер:  241 MB   |    Зарегистрирован:  4 года 8 месяцев   |    .torrent скачан:  131 раз   |   
Раздают:  1  
   
Загрузка...
 
Автор Сообщение

L


The Soft Moon / Zeros

Год: 2012
Страна: US
Жанр: Post-Punk/Darkwave
Продолжительность: 35:29
Вшитые тексты: не добавлены
Кодек: ALAC
Программа-риповщик : foobar2000 + iTunes (lossless)
Битрейт: lossless
Треклист:
01 It Ends 1:51
02 Machines 2:46
03 Zero 4:39
04 Insides 4:01
05 Remember The Future 3:23
06 Crush 3:58
07 Die Life 3:36
08 Lost Years 4:36
09 Want 3:38
10 sdnE tI 1:51
Exact Audio Copy V1.0 beta 3 from 29. August 2011

EAC extraction logfile from 8. November 2012, 18:35

The Soft Moon / Zeros

Used drive : PLDS DVD+-RW DS-8A5SH Adapter: 1 ID: 0

Read mode : SecureUtilize accurate stream : YesDefeat audio cache : YesMake use of C2 pointers : No

Read offset correction : 6Overread into Lead-In and Lead-Out : NoFill up missing offset samples with silence : YesDelete leading and trailing silent blocks : NoNull samples used in CRC calculations : YesUsed interface : Native Win32 interface for Win NT & 2000Gap handling : Appended to previous track

Used output format : User Defined EncoderSelected bitrate : 32 kBit/sQuality : HighAdd ID3 tag : NoCommand line compressor : C:\Program Files (x86)\FLAC\flac.exeAdditional command line options : -T "artist=%artist%" -T "title=%title%" -T "album=%albumtitle%" -T "date=%year%" -T "tracknumber=%tracknr%" -T "genre=%genre%" -8 --verify %source%

TOC of the extracted CD

Track | Start | Length | Start sector | End sector --------------------------------------------------------- 1 | 0:00.00 | 1:50.63 | 0 | 8312 2 | 1:50.63 | 2:46.25 | 8313 | 20787 3 | 4:37.13 | 4:38.39 | 20788 | 41676 4 | 9:15.52 | 4:01.28 | 41677 | 59779 5 | 13:17.05 | 3:22.42 | 59780 | 74971 6 | 16:39.47 | 3:58.10 | 74972 | 92831 7 | 20:37.57 | 3:36.26 | 92832 | 109057 8 | 24:14.08 | 4:35.72 | 109058 | 129754 9 | 28:50.05 | 3:38.29 | 129755 | 146133 10 | 32:28.34 | 1:51.18 | 146134 | 154476

Track 1

Filename G:\TheSoftMoon\01-The_Soft_Moon-It_Ends.wav

Pre-gap length 0:00:02.00

Peak level 96.6 % Extraction speed 2.1 X Track quality 100.0 % Test CRC 84B39259 Copy CRC 84B39259 Track not present in AccurateRip database Copy OK

Track 2

Filename G:\TheSoftMoon\02-The_Soft_Moon-Machines.wav

Peak level 96.6 % Extraction speed 2.2 X Track quality 99.9 % Test CRC 68D80117 Copy CRC 68D80117 Track not present in AccurateRip database Copy OK

Track 3

Filename G:\TheSoftMoon\03-The_Soft_Moon-Zero.wav

Peak level 96.6 % Extraction speed 2.7 X Track quality 99.9 % Test CRC 8FA4E335 Copy CRC 8FA4E335 Track not present in AccurateRip database Copy OK

Track 4

Filename G:\TheSoftMoon\04-The_Soft_Moon-Insides.wav

Peak level 96.6 % Extraction speed 2.9 X Track quality 99.9 % Test CRC 6224F80A Copy CRC 6224F80A Track not present in AccurateRip database Copy OK

Track 5

Filename G:\TheSoftMoon\05-The_Soft_Moon-Remember_The_Future.wav

Peak level 96.6 % Extraction speed 3.4 X Track quality 100.0 % Test CRC C9B7EF2C Copy CRC C9B7EF2C Track not present in AccurateRip database Copy OK

Track 6

Filename G:\TheSoftMoon\06-The_Soft_Moon-Crush.wav

Peak level 96.6 % Extraction speed 3.7 X Track quality 100.0 % Test CRC DC5DD17E Copy CRC DC5DD17E Track not present in AccurateRip database Copy OK

Track 7

Filename G:\TheSoftMoon\07-The_Soft_Moon-Die_Life.wav

Peak level 96.6 % Extraction speed 3.8 X Track quality 100.0 % Test CRC B96A2C6C Copy CRC B96A2C6C Track not present in AccurateRip database Copy OK

Track 8

Filename G:\TheSoftMoon\08-The_Soft_Moon-Lost_Years.wav

Peak level 96.6 % Extraction speed 4.1 X Track quality 100.0 % Test CRC 9F23B376 Copy CRC 9F23B376 Track not present in AccurateRip database Copy OK

Track 9

Filename G:\TheSoftMoon\09-The_Soft_Moon-Want.wav

Peak level 96.6 % Extraction speed 4.2 X Track quality 100.0 % Test CRC CA2BDA4E Copy CRC CA2BDA4E Track not present in AccurateRip database Copy OK

Track 10

Filename G:\TheSoftMoon\10-The_Soft_Moon-sdnE_tI.wav

Peak level 96.6 % Extraction speed 3.0 X Track quality 99.9 % Test CRC C0D82249 Copy CRC C0D82249 Track not present in AccurateRip database Copy OK

None of the tracks are present in the AccurateRip database

No errors occurred

End of status report

==== Log checksum D59E4297310AF985C903304336AE130659BD5BA4ADE7FA1B8BFAD1C29343D428 ====


Трекер:  [ 25-Янв-2013 09:44 ]

  

Скачать .torrent

Размер .torrent файла 20 KB


Размер: 241 MB
Хэш (hash) релиза: a5190f45ae5341ebd609bca2a728415e30b9165a

Еще никто не оставлял запись к записи скачать торрент The Soft Moon Zeros - 2012 ALAC, lossless . Будь первым!

!Обратная связь