Скачать через торрент Symmetry Themes For An Imaginary Film - 2012 ALAC, lossless бесплатно русская версия torrent активатор

Если у вас наблюдаются проблемы со скриншотами, переходом по ссылками, скачиванием торрентов - проблемы в блокировщике рекламы AdBlock. #хорошегоДня!


Статистика раздачи
Размер:  599 MB   |    Зарегистрирован:  4 года 8 месяцев   |    .torrent скачан:  82 раза   |   
Раздают:  1  
   
Загрузка...
 
Автор Сообщение

L


Symmetry / Themes For An Imaginary Film

Год: 2012
Страна: US
Жанр: Electronic/Italo Disco
Продолжительность: 02:00:47
Вшитые тексты: не требуются
Кодек: ALAC
Программа-риповщик : foobar2000 + iTunes (lossless)
Битрейт: lossless
Треклист:
CD1
01 Introduction 3:02
02 City of Dreams 2:33
03 Over The Edge 5:35
04 The Nightshift 0:52
05 Paper Chase 3:29
06 Outside Looking In 2:07
07 Midnight Sun 2:29
08 Behind The Wheel 5:29
09 Thicker Than Blood 3:36
10 A Sort of Homecoming 3:34
11 Winner Take All 3:29
12 Death Mask 5:34
13 Jackie's Eyes 3:33
14 The Fading Faces 2:15
15 Mind Games 3:14
16 The Maze 3:59
17 Threshold 3:13
18 Flashback 3:56
CD2
01 Blood Sport 3:42
02 Survival Instinct 2:54
03 Hall of Mirrors 4:17
04 Eulogy 2:58
05 The Messenger 3:57
06 Love Theme 1:55
07 Through The Gauntlet 3:42
08 Ghost Town 4:25
09 Cruise Control 3:24
10 Wave Goodbye 1:04
11 Magic Gardens 2:05
12 An Eye For An Eye 2:03
13 The Point of No Return 5:55
14 Cremation 2:54
15 The Nightshift (Reprise) 1:04
16 Memories Are Forever 6:14
17 Echoes of The Mind 1:22
18 Streets of Fire 4:53

Доп. информация: Новый проект Johnny Jewel.
Продюссера, мульти инструменталиста, основателя лейбла Italians Do It Better, участника групп( а также их продюссер) Chromatics,Glass Candy,Desire,Symmetry. Представляет свой новый проект. Амбициозный альбом состоящий из 36 треков. Призван показать на что способен этот человек без ограничений в творческом процессе,будучи закрытым в студии.
Интервью для Pitchfork
Exact Audio Copy V1.0 beta 2 from 29. April 2011

EAC extraction logfile from 11. February 2012, 19:43

Symmetry / Themes For An Imaginary Film

Used drive : Optiarc DVD RW AD-7240S Adapter: 4 ID: 1

Read mode : Secure
Utilize accurate stream : Yes
Defeat audio cache : Yes
Make use of C2 pointers : No

Read offset correction : 48
Overread into Lead-In and Lead-Out : No
Fill up missing offset samples with silence : Yes
Delete leading and trailing silent blocks : No
Null samples used in CRC calculations : Yes
Used interface : Native Win32 interface for Win NT & 2000
Gap handling : Appended to previous track

Used output format : User Defined Encoder
Selected bitrate : 1024 kBit/s
Quality : High
Add ID3 tag : No
Command line compressor : E:\Programs\Exact Audio Copy\Flac\flac.exe
Additional command line options : -8 -V -T "ARTIST=%artist%" -T "TITLE=%title%" -T "ALBUM=%albumtitle%" -T "DATE=%year%" -T "TRACKNUMBER=%tracknr%" -T "GENRE=%genre%" -T "PERFORMER=%albuminterpret%" -T "COMPOSER=%composer%" %haslyrics%--tag-from-file=LYRICS

TOC of the extracted CD

Track | Start | Length | Start sector | End sector
---------------------------------------------------------
1 | 0:00.00 | 3:02.26 | 0 | 13675
2 | 3:02.26 | 2:33.04 | 13676 | 25154
3 | 5:35.30 | 5:35.19 | 25155 | 50298
4 | 11:10.49 | 0:52.04 | 50299 | 54202
5 | 12:02.53 | 3:28.43 | 54203 | 69845
6 | 15:31.21 | 2:06.74 | 69846 | 79369
7 | 17:38.20 | 2:28.69 | 79370 | 90538
8 | 20:07.14 | 5:29.34 | 90539 | 115247
9 | 25:36.48 | 3:35.47 | 115248 | 131419
10 | 29:12.20 | 3:34.15 | 131420 | 147484
11 | 32:46.35 | 3:29.25 | 147485 | 163184
12 | 36:15.60 | 5:33.42 | 163185 | 188201
13 | 41:49.27 | 3:32.64 | 188202 | 204165
14 | 45:22.16 | 2:14.58 | 204166 | 214273
15 | 47:36.74 | 3:14.00 | 214274 | 228823
16 | 50:50.74 | 3:59.11 | 228824 | 246759
17 | 54:50.10 | 3:12.44 | 246760 | 261203
18 | 58:02.54 | 3:56.13 | 261204 | 278916

Track 1

Filename C:\Users\Louie\Desktop\Symmetry - Themes For An Imaginary Film (2012) [FLAC]\01 - Introduction.wav

Pre-gap length 0:00:02.00

Peak level 96.4 %
Extraction speed 2.1 X
Track quality 100.0 %
Test CRC 602FCA61
Copy CRC 602FCA61
Track not present in AccurateRip database
Copy OK

Track 2

Filename C:\Users\Louie\Desktop\Symmetry - Themes For An Imaginary Film (2012) [FLAC]\02 - City of Dreams.wav

Peak level 97.5 %
Extraction speed 1.9 X
Track quality 99.9 %
Test CRC 879FE50D
Copy CRC 879FE50D
Track not present in AccurateRip database
Copy OK

Track 3

Filename C:\Users\Louie\Desktop\Symmetry - Themes For An Imaginary Film (2012) [FLAC]\03 - Over The Edge.wav

Peak level 97.0 %
Extraction speed 2.8 X
Track quality 100.0 %
Test CRC C24857B8
Copy CRC C24857B8
Track not present in AccurateRip database
Copy OK

Track 4

Filename C:\Users\Louie\Desktop\Symmetry - Themes For An Imaginary Film (2012) [FLAC]\04 - The Nightshift.wav

Peak level 59.4 %
Extraction speed 1.9 X
Track quality 100.0 %
Test CRC 16DA3C1C
Copy CRC 16DA3C1C
Track not present in AccurateRip database
Copy OK

Track 5

Filename C:\Users\Louie\Desktop\Symmetry - Themes For An Imaginary Film (2012) [FLAC]\05 - Paper Chase.wav

Peak level 97.7 %
Extraction speed 2.9 X
Track quality 100.0 %
Test CRC 4D29B368
Copy CRC 4D29B368
Track not present in AccurateRip database
Copy OK

Track 6

Filename C:\Users\Louie\Desktop\Symmetry - Themes For An Imaginary Film (2012) [FLAC]\06 - Outside Looking In.wav

Peak level 86.2 %
Extraction speed 2.8 X
Track quality 100.0 %
Test CRC 93E8FE0B
Copy CRC 93E8FE0B
Track not present in AccurateRip database
Copy OK

Track 7

Filename C:\Users\Louie\Desktop\Symmetry - Themes For An Imaginary Film (2012) [FLAC]\07 - Midnight Sun.wav

Peak level 95.9 %
Extraction speed 2.9 X
Track quality 100.0 %
Test CRC D21A63AB
Copy CRC D21A63AB
Track not present in AccurateRip database
Copy OK

Track 8

Filename C:\Users\Louie\Desktop\Symmetry - Themes For An Imaginary Film (2012) [FLAC]\08 - Behind The Wheel.wav

Peak level 98.2 %
Extraction speed 3.6 X
Track quality 100.0 %
Test CRC C294F637
Copy CRC C294F637
Track not present in AccurateRip database
Copy OK

Track 9

Filename C:\Users\Louie\Desktop\Symmetry - Themes For An Imaginary Film (2012) [FLAC]\09 - Thicker Than Blood.wav

Peak level 97.5 %
Extraction speed 3.6 X
Track quality 100.0 %
Test CRC 7FDC3811
Copy CRC 7FDC3811
Track not present in AccurateRip database
Copy OK

Track 10

Filename C:\Users\Louie\Desktop\Symmetry - Themes For An Imaginary Film (2012) [FLAC]\10 - A Sort of Homecoming.wav

Peak level 68.2 %
Extraction speed 3.7 X
Track quality 100.0 %
Test CRC 40F8D0EA
Copy CRC 40F8D0EA
Track not present in AccurateRip database
Copy OK

Track 11

Filename C:\Users\Louie\Desktop\Symmetry - Themes For An Imaginary Film (2012) [FLAC]\11 - Winner Take All.wav

Peak level 96.8 %
Extraction speed 3.8 X
Track quality 100.0 %
Test CRC FFB65866
Copy CRC FFB65866
Track not present in AccurateRip database
Copy OK

Track 12

Filename C:\Users\Louie\Desktop\Symmetry - Themes For An Imaginary Film (2012) [FLAC]\12 - Death Mask.wav

Peak level 97.0 %
Extraction speed 4.2 X
Track quality 100.0 %
Test CRC 280300D2
Copy CRC 280300D2
Track not present in AccurateRip database
Copy OK

Track 13

Filename C:\Users\Louie\Desktop\Symmetry - Themes For An Imaginary Film (2012) [FLAC]\13 - Jackie's Eyes.wav

Peak level 95.9 %
Extraction speed 4.1 X
Track quality 100.0 %
Test CRC 23899CBA
Copy CRC 23899CBA
Track not present in AccurateRip database
Copy OK

Track 14

Filename C:\Users\Louie\Desktop\Symmetry - Themes For An Imaginary Film (2012) [FLAC]\14 - The Fading Faces.wav

Peak level 95.9 %
Extraction speed 3.2 X
Track quality 99.9 %
Test CRC C2FBCAEB
Copy CRC C2FBCAEB
Track not present in AccurateRip database
Copy OK

Track 15

Filename C:\Users\Louie\Desktop\Symmetry - Themes For An Imaginary Film (2012) [FLAC]\15 - Mind Games.wav

Peak level 71.2 %
Extraction speed 4.3 X
Track quality 100.0 %
Test CRC 558FB257
Copy CRC 558FB257
Track not present in AccurateRip database
Copy OK

Track 16

Filename C:\Users\Louie\Desktop\Symmetry - Themes For An Imaginary Film (2012) [FLAC]\16 - The Maze.wav

Peak level 96.1 %
Extraction speed 4.6 X
Track quality 100.0 %
Test CRC 9E672D70
Copy CRC 9E672D70
Track not present in AccurateRip database
Copy OK

Track 17

Filename C:\Users\Louie\Desktop\Symmetry - Themes For An Imaginary Film (2012) [FLAC]\17 - Threshold.wav

Peak level 96.1 %
Extraction speed 4.5 X
Track quality 100.0 %
Test CRC 63BE5E1C
Copy CRC 63BE5E1C
Track not present in AccurateRip database
Copy OK

Track 18

Filename C:\Users\Louie\Desktop\Symmetry - Themes For An Imaginary Film (2012) [FLAC]\18 - Flashback.wav

Peak level 95.9 %
Extraction speed 4.8 X
Track quality 100.0 %
Test CRC 88B94D2B
Copy CRC 88B94D2B
Track not present in AccurateRip database
Copy OK

None of the tracks are present in the AccurateRip database

No errors occurred

End of status report

==== Log checksum 2DFA2BEFF3B865CDAD89C0150DB9393F7FDAF015847AD0C8E86FAAD8E22687EE ====
Exact Audio Copy V1.0 beta 2 from 29. April 2011

EAC extraction logfile from 11. February 2012, 20:25

Symmetry / Themes For An Imaginary Film

Used drive : Optiarc DVD RW AD-7240S Adapter: 4 ID: 1

Read mode : Secure
Utilize accurate stream : Yes
Defeat audio cache : Yes
Make use of C2 pointers : No

Read offset correction : 48
Overread into Lead-In and Lead-Out : No
Fill up missing offset samples with silence : Yes
Delete leading and trailing silent blocks : No
Null samples used in CRC calculations : Yes
Used interface : Native Win32 interface for Win NT & 2000
Gap handling : Appended to previous track

Used output format : User Defined Encoder
Selected bitrate : 1024 kBit/s
Quality : High
Add ID3 tag : No
Command line compressor : E:\Programs\Exact Audio Copy\Flac\flac.exe
Additional command line options : -8 -V -T "ARTIST=%artist%" -T "TITLE=%title%" -T "ALBUM=%albumtitle%" -T "DATE=%year%" -T "TRACKNUMBER=%tracknr%" -T "GENRE=%genre%" -T "PERFORMER=%albuminterpret%" -T "COMPOSER=%composer%" %haslyrics%--tag-from-file=LYRICS

TOC of the extracted CD

Track | Start | Length | Start sector | End sector
---------------------------------------------------------
1 | 0:00.00 | 3:41.52 | 0 | 16626
2 | 3:41.52 | 2:53.65 | 16627 | 29666
3 | 6:35.42 | 4:17.06 | 29667 | 48947
4 | 10:52.48 | 2:57.70 | 48948 | 62292
5 | 13:50.43 | 3:57.10 | 62293 | 80077
6 | 17:47.53 | 1:55.37 | 80078 | 88739
7 | 19:43.15 | 3:42.20 | 88740 | 105409
8 | 23:25.35 | 4:24.56 | 105410 | 125265
9 | 27:50.16 | 3:23.43 | 125266 | 140533
10 | 31:13.59 | 1:04.25 | 140534 | 145358
11 | 32:18.09 | 2:04.44 | 145359 | 154702
12 | 34:22.53 | 2:03.04 | 154703 | 163931
13 | 36:25.57 | 5:55.04 | 163932 | 190560
14 | 42:20.61 | 2:54.01 | 190561 | 203611
15 | 45:14.62 | 1:04.11 | 203612 | 208422
16 | 46:18.73 | 6:14.23 | 208423 | 236495
17 | 52:33.21 | 1:21.59 | 236496 | 242629
18 | 53:55.05 | 4:52.50 | 242630 | 264579

Track 1

Filename C:\Users\Louie\Desktop\Symmetry - Themes For An Imaginary Film (2012) [FLAC]\Disc 2\01 - Blood Sport.wav

Pre-gap length 0:00:02.00

Peak level 99.8 %
Extraction speed 2.2 X
Track quality 100.0 %
Test CRC EECC6DBD
Copy CRC EECC6DBD
Track not present in AccurateRip database
Copy OK

Track 2

Filename C:\Users\Louie\Desktop\Symmetry - Themes For An Imaginary Film (2012) [FLAC]\Disc 2\02 - Survival Instinct.wav

Peak level 95.9 %
Extraction speed 2.3 X
Track quality 100.0 %
Test CRC FB68D0F7
Copy CRC FB68D0F7
Track not present in AccurateRip database
Copy OK

Track 3

Filename C:\Users\Louie\Desktop\Symmetry - Themes For An Imaginary Film (2012) [FLAC]\Disc 2\03 - Hall of Mirrors.wav

Peak level 77.8 %
Extraction speed 2.7 X
Track quality 100.0 %
Test CRC 8B4FD8BD
Copy CRC 8B4FD8BD
Track not present in AccurateRip database
Copy OK

Track 4

Filename C:\Users\Louie\Desktop\Symmetry - Themes For An Imaginary Film (2012) [FLAC]\Disc 2\04 - Eulogy.wav

Peak level 99.6 %
Extraction speed 2.4 X
Track quality 99.9 %
Test CRC D25E1391
Copy CRC D25E1391
Track not present in AccurateRip database
Copy OK

Track 5

Filename C:\Users\Louie\Desktop\Symmetry - Themes For An Imaginary Film (2012) [FLAC]\Disc 2\05 - The Messenger.wav

Peak level 99.1 %
Extraction speed 3.1 X
Track quality 100.0 %
Test CRC 19F96118
Copy CRC 19F96118
Track not present in AccurateRip database
Copy OK

Track 6

Filename C:\Users\Louie\Desktop\Symmetry - Themes For An Imaginary Film (2012) [FLAC]\Disc 2\06 - Love Theme.wav

Peak level 95.9 %
Extraction speed 2.2 X
Track quality 99.9 %
Test CRC 2BD2A02C
Copy CRC 2BD2A02C
Track not present in AccurateRip database
Copy OK

Track 7

Filename C:\Users\Louie\Desktop\Symmetry - Themes For An Imaginary Film (2012) [FLAC]\Disc 2\07 - Through The Gauntlet.wav

Peak level 84.4 %
Extraction speed 3.3 X
Track quality 100.0 %
Test CRC 625FC53A
Copy CRC 625FC53A
Track not present in AccurateRip database
Copy OK

Track 8

Filename C:\Users\Louie\Desktop\Symmetry - Themes For An Imaginary Film (2012) [FLAC]\Disc 2\08 - Ghost Town.wav

Peak level 77.5 %
Extraction speed 3.6 X
Track quality 100.0 %
Test CRC C54CBE8D
Copy CRC C54CBE8D
Track not present in AccurateRip database
Copy OK

Track 9

Filename C:\Users\Louie\Desktop\Symmetry - Themes For An Imaginary Film (2012) [FLAC]\Disc 2\09 - Cruise Control.wav

Peak level 95.9 %
Extraction speed 3.6 X
Track quality 100.0 %
Test CRC 412A5720
Copy CRC 412A5720
Track not present in AccurateRip database
Copy OK

Track 10

Filename C:\Users\Louie\Desktop\Symmetry - Themes For An Imaginary Film (2012) [FLAC]\Disc 2\10 - Wave Goodbye.wav

Peak level 85.9 %
Extraction speed 2.7 X
Track quality 100.0 %
Test CRC F463AAFF
Copy CRC F463AAFF
Track not present in AccurateRip database
Copy OK

Track 11

Filename C:\Users\Louie\Desktop\Symmetry - Themes For An Imaginary Film (2012) [FLAC]\Disc 2\11 - Magic Gardens.wav

Peak level 98.8 %
Extraction speed 3.4 X
Track quality 100.0 %
Test CRC E1AF80B2
Copy CRC E1AF80B2
Track not present in AccurateRip database
Copy OK

Track 12

Filename C:\Users\Louie\Desktop\Symmetry - Themes For An Imaginary Film (2012) [FLAC]\Disc 2\12 - An Eye For An Eye.wav

Peak level 89.5 %
Extraction speed 3.4 X
Track quality 100.0 %
Test CRC 0DFD28A1
Copy CRC 0DFD28A1
Track not present in AccurateRip database
Copy OK

Track 13

Filename C:\Users\Louie\Desktop\Symmetry - Themes For An Imaginary Film (2012) [FLAC]\Disc 2\13 - The Point of No Return.wav

Peak level 98.2 %
Extraction speed 4.3 X
Track quality 100.0 %
Test CRC 05BA1C32
Copy CRC 05BA1C32
Track not present in AccurateRip database
Copy OK

Track 14

Filename C:\Users\Louie\Desktop\Symmetry - Themes For An Imaginary Film (2012) [FLAC]\Disc 2\14 - Cremation.wav

Peak level 61.1 %
Extraction speed 4.0 X
Track quality 100.0 %
Test CRC FF299C42
Copy CRC FF299C42
Track not present in AccurateRip database
Copy OK

Track 15

Filename C:\Users\Louie\Desktop\Symmetry - Themes For An Imaginary Film (2012) [FLAC]\Disc 2\15 - The Nightshift (Reprise).wav

Peak level 95.9 %
Extraction speed 3.2 X
Track quality 100.0 %
Test CRC 3A37B00E
Copy CRC 3A37B00E
Track not present in AccurateRip database
Copy OK

Track 16

Filename C:\Users\Louie\Desktop\Symmetry - Themes For An Imaginary Film (2012) [FLAC]\Disc 2\16 - Memories Are Forever.wav

Peak level 69.7 %
Extraction speed 4.7 X
Track quality 100.0 %
Test CRC EE2C26E9
Copy CRC EE2C26E9
Track not present in AccurateRip database
Copy OK

Track 17

Filename C:\Users\Louie\Desktop\Symmetry - Themes For An Imaginary Film (2012) [FLAC]\Disc 2\17 - Echoes of The Mind.wav

Peak level 92.4 %
Extraction speed 3.6 X
Track quality 100.0 %
Test CRC 32713D63
Copy CRC 32713D63
Track not present in AccurateRip database
Copy OK

Track 18

Filename C:\Users\Louie\Desktop\Symmetry - Themes For An Imaginary Film (2012) [FLAC]\Disc 2\18 - Streets of Fire.wav

Peak level 77.3 %
Extraction speed 4.8 X
Track quality 100.0 %
Test CRC C6D436AC
Copy CRC C6D436AC
Track not present in AccurateRip database
Copy OK

None of the tracks are present in the AccurateRip database

No errors occurred

End of status report

==== Log checksum 80F88BFD30B54DE73FCCC7E64488D24487C4735CC8488FE430DCDC8946920736 ====


Трекер:  [ 25-Янв-2013 09:43 ]

  

Скачать .torrent

Размер .torrent файла 14 KB


Размер: 599 MB
Хэш (hash) релиза: 9c1168b4e8a1527d466126e1377a95c539f20858

Еще никто не оставлял запись к записи скачать торрент Symmetry Themes For An Imaginary Film - 2012 ALAC, lossless . Будь первым!

!Обратная связь