Скачать через торрент Roxette - Travelling - 2012, ALAC, lossless, tracks бесплатно русская версия torrent активатор

Если у вас наблюдаются проблемы со скриншотами, переходом по ссылками, скачиванием торрентов - проблемы в блокировщике рекламы AdBlock. #хорошегоДня!


Статистика раздачи
Размер:  386 MB   |    Зарегистрирован:  4 года 8 месяцев   |    .torrent скачан:  93 раза   |   
Раздают:  1  
   
Загрузка...
 
Автор Сообщение

L


Roxette - Travelling

Год: 2012
Страна: Sweden
Жанр: Pop
Тип издания: оригинал
Издатель (лейбл): EMI Svenska AB
Наличие сканов в содержимом раздачи: нет
Продолжительность: 54:45
Вшитые тексты: добавлены
Кодек: ALAC
Программа-риповщик : iTunes (диск)
Битрейт: lossless
Треклист:
1. Me & You & Terry & Julie
2. Lover, Lover, Lover
3. Turn Of The Tide
4. Touched By The Hand Of God
5. Easy Way Out
6. It's Possible [Version One]
7. Perfect Excuse
8. Excuse Me, Sir, Do You Want Me To Check On Your Wife?
9. Angel Passing
10. Stars [Live]
11. The Weight Of The World (Vocal Up Mix)
12. She's Got Nothing On (But The Radio) [Live]
13. See Me [New Version]
14. It's Possible [Version Two]
15. It Must Have Been Love [Live]
Exact Audio Copy V1.0 beta 3 from 29. August 2011EAC extraction logfile from 14. April 2012, 21:27Roxette / TravellingUsed drive : MATSHITABD-CMB UJ242AS Adapter: 0 ID: 1Read mode : SecureUtilize accurate stream : YesDefeat audio cache : YesMake use of C2 pointers : NoRead offset correction : 103Overread into Lead-In and Lead-Out : NoFill up missing offset samples with silence : YesDelete leading and trailing silent blocks : NoNull samples used in CRC calculations : YesUsed interface : Installed external ASPI interfaceUsed output format : User Defined EncoderSelected bitrate : 1024 kBit/sQuality : HighAdd ID3 tag : YesCommand line compressor : C:\Program Files (x86)\Exact Audio Copy\Flac\flac.exeAdditional command line options : -V -8 -T "Date=%year%" -T "Genre=%genre%" %source%TOC of the extracted CDTrack | Start | Length | Start sector | End sector---------------------------------------------------------1 | 0:00.00 | 3:45.48 | 0 | 169222 | 3:45.48 | 3:59.56 | 16923 | 349033 | 7:45.29 | 4:10.64 | 34904 | 537174 | 11:56.18 | 3:48.20 | 53718 | 708375 | 15:44.38 | 3:38.23 | 70838 | 872106 | 19:22.61 | 2:38.30 | 87211 | 990907 | 22:01.16 | 3:40.45 | 99091 | 1156358 | 25:41.61 | 4:15.33 | 115636 | 1347939 | 29:57.19 | 2:46.73 | 134794 | 14731610 | 32:44.17 | 3:35.44 | 147317 | 16348511 | 36:19.61 | 2:52.29 | 163486 | 17641412 | 39:12.15 | 4:41.28 | 176415 | 19751713 | 43:53.43 | 3:48.67 | 197518 | 21468414 | 47:42.35 | 2:44.41 | 214685 | 22702515 | 50:27.01 | 4:17.42 | 227026 | 246342Range status and errorsSelected rangeFilename C:\EACrip\Roxette — Travelling.wavPeak level 100.0 %Extraction speed 4.2 XRange quality 100.0 %Test CRC 677B3E05Copy CRC 677B3E05Copy OKNo errors occurredAccurateRip summaryTrack 1 not present in databaseTrack 2 not present in databaseTrack 3 not present in databaseTrack 4 not present in databaseTrack 5 not present in databaseTrack 6 not present in databaseTrack 7 not present in databaseTrack 8 not present in databaseTrack 9 not present in databaseTrack 10 not present in databaseTrack 11 not present in databaseTrack 12 not present in databaseTrack 13 not present in databaseTrack 14 not present in databaseTrack 15 not present in databaseNone of the tracks are present in the AccurateRip databaseEnd of status report==== Log checksum 901656771F01552E14BF469DECE26869277F44BA653B5DF1FFAAD21240706444 ====


Трекер:  [ 25-Янв-2013 09:44 ]

  

Скачать .torrent

Размер .torrent файла 16 KB


Размер: 386 MB
Хэш (hash) релиза: 177aabcc6ce6f6122258b95f078d0fc04e5994a9

Еще никто не оставлял запись к записи скачать торрент Roxette - Travelling - 2012, ALAC, lossless, tracks . Будь первым!

!Обратная связь