Скачать через торрент музыку Gruppo dAlternativa - Ipotesi - 1972; FLAC бесплатно без регистрации torrent

Если у вас наблюдаются проблемы со скриншотами, переходом по ссылками, скачиванием торрентов - проблемы в блокировщике рекламы AdBlock. #хорошегоДня!


Статистика раздачи
Размер:  276 MB   |    Зарегистрирован:  4 года 6 месяцев   |    .torrent скачан:  28 раз   |   
Раздают:  1  
   
Загрузка...
 
Автор Сообщение

Galfimbul

avatar Galfimbul


GRUPPO D’ALTERNATIVA — Ipotesi (1972)

Жанр: Rock Progressivo Italiano/Avant-prog
Страна исполнителя: Italy
Год выпуска диска: 2007
Производитель дисков: Italy (AMS/Vinyl Magic)
Номер по каталогу: AMS114CD
Аудио кодек: FLAC
Тип рипа: image+.cue
Битрейт аудио: lossless
Продолжительность: 00:35:06
Наличие сканов в содержимом раздачи: да
Источник: моя коллекция CD

Треклист:
01. Quando le Parole... [02:15.893]
02. Incidente [01:59.840]
03. Infanzia:
• I Movimento [02:36.000]
• II Movimento [02:36.667]
04. Voglia di Essere [04:14.200]
05. Solitudine [04:44.333]
06. Appare la Forma [03:49.160]
07. La Tua Lotta [06:21.640]
08. Messaggio Libero [03:47.200]
09. Ipotesi [02:41.160]

Line-up:
Tino Guasconi — vocals
[b]Gianfranco Fumagalli
— flute
Leonardo Dosso — bassoon, guitar
Roberto Romano — piano, Hammond organ, voice, narration (1, 9)
Rodolfo Pace — electric & acoustic guitars
Paolo Rizzi — bass
Nino Flenda — drums, percussion[/b]
REM GENRE "Rock Progressivo Italiano/Avant-prog"
REM DATE 1972
REM DISCID 74083A09
REM COMMENT "ExactAudioCopy v0.99pb4"
PERFORMER "GRUPPO D’ALTERNATIVA"
TITLE "Ipotesi"
FILE "GRUPPO D'ALTERNATIVA - 1972 - Ipotesi [2007, Vinyl Magic AMS114CD].wav" WAVE
  TRACK 01 AUDIO
    TITLE "Quando le Parole..."
    PERFORMER "GRUPPO D’ALTERNATIVA"
    INDEX 01 00:00:00
  TRACK 02 AUDIO
    TITLE "Incidente"
    PERFORMER "GRUPPO D’ALTERNATIVA"
    INDEX 01 02:15:67
  TRACK 03 AUDIO
    TITLE "Infanzia: a) I Movimento; b) II Movimento"
    PERFORMER "GRUPPO D’ALTERNATIVA"
    INDEX 01 04:15:55
    INDEX 02 06:51:55
  TRACK 04 AUDIO
    TITLE "Voglia di Essere"
    PERFORMER "GRUPPO D’ALTERNATIVA"
    INDEX 01 09:28:30
  TRACK 05 AUDIO
    TITLE "Solitudine"
    PERFORMER "GRUPPO D’ALTERNATIVA"
    INDEX 01 13:42:45
  TRACK 06 AUDIO
    TITLE "Appare la Forma"
    PERFORMER "GRUPPO D’ALTERNATIVA"
    INDEX 01 18:26:70
  TRACK 07 AUDIO
    TITLE "La Tua Lotta"
    PERFORMER "GRUPPO D’ALTERNATIVA"
    INDEX 01 22:16:07
  TRACK 08 AUDIO
    TITLE "Messaggio Libero"
    PERFORMER "GRUPPO D’ALTERNATIVA"
    INDEX 01 28:37:55
  TRACK 09 AUDIO
    TITLE "Ipotesi"
    PERFORMER "GRUPPO D’ALTERNATIVA"
    INDEX 01 32:24:70
Exact Audio Copy V0.99 prebeta 4 from 23. January 2008

Отчёт EAC об извлечении, выполненном 22. января 2013, 19:58

GRUPPO D’ALTERNATIVA / Ipotesi

Дисковод: TSSTcorpCD/DVDW SH-S183A   Adapter: 4  ID: 1

Режим чтения                 : Достоверность
Использование точного потока : Да
Отключение кэша аудио        : Да
Использование указателей C2  : Нет

Коррекция смещения при чтении                     : 6
Способность читать области Lead-in и Lead-out     : Нет
Заполнение пропущенных сэмплов тишиной            : Да
Удаление блоков с тишиной в начале и конце        : Нет
При вычислениях CRC использовались нулевые сэмплы : Да
Интерфейс                                         : Встроенный Win32-интерфейс для Win NT/2000

Выходной формат : Внутренние WAV-операции
Формат сэмплов  : 44.100 Гц; 16 бит; стерео

TOC извлечённого CD

     Трек |   Старт  | Длительность | Начальный сектор | Конечный сектор
    ---------------------------------------------------------------------
       1  |  0:00.00 |    2:15.67   |           0      |      10191
       2  |  2:15.67 |    1:59.63   |       10192      |      19179
       3  |  4:15.55 |    5:12.50   |       19180      |      42629
       4  |  9:28.30 |    4:14.15   |       42630      |      61694
       5  | 13:42.45 |    4:44.25   |       61695      |      83019
       6  | 18:26.70 |    3:49.12   |       83020      |     100206
       7  | 22:16.07 |    6:21.48   |      100207      |     128829
       8  | 28:37.55 |    3:47.15   |      128830      |     145869
       9  | 32:24.70 |    2:41.12   |      145870      |     157956

Характеристики диапазона извлечения и сообщения об ошибках

Выбранный диапазон

     Имя файла D:\TEMP\GRUPPO D'ALTERNATIVA - 1972 - Ipotesi [2007, Vinyl Magic AMS114CD].wav

     Пиковый уровень 98.8 %
     Качество диапазона 100.0 %
     CRC теста D6283EED
     CRC копии D6283EED
     Копирование... OK

Ошибок не произошло

AccurateRip: сводка

Трек  1  точность не определена (достоверность 1)  [212D50B8], AccurateRip вернул [8C79CCFA]
Трек  2  точность не определена (достоверность 1)  [9FE2C0CC], AccurateRip вернул [894F7A0C]
Трек  3  точность не определена (достоверность 1)  [CC404C19], AccurateRip вернул [09FC8D3D]
Трек  4  точность не определена (достоверность 1)  [7519081D], AccurateRip вернул [02A32B1F]
Трек  5  точность не определена (достоверность 1)  [B670AB0D], AccurateRip вернул [FB517B5C]
Трек  6  точность не определена (достоверность 1)  [B6FD97EF], AccurateRip вернул [422A2733]
Трек  7  точность не определена (достоверность 1)  [64388529], AccurateRip вернул [710A1A20]
Трек  8  точность не определена (достоверность 1)  [6811EA55], AccurateRip вернул [BB8C5D68]
Трек  9  точность не определена (достоверность 1)  [F451E2D7], AccurateRip вернул [81633A24]

Ни один трек не прошёл проверки на точность
В вашей базе может быть иной вариант штамповки диска

Конец отчёта


Трекер:  [ 24-Янв-2013 17:30 ]

  

Скачать .torrent

Размер .torrent файла 12 KB


Размер: 276 MB
Хэш (hash) релиза: 258a83cd1f1ac5940a040b85e31f6699bc520192

Еще никто не оставлял запись к записи скачать торрент Gruppo dAlternativa - Ipotesi - 1972; FLAC . Будь первым!

!Обратная связь