Скачать через торрент музыку Panzerpappa - Astromalist - 2012, FLAC бесплатно без регистрации torrent

Если у вас наблюдаются проблемы со скриншотами, переходом по ссылками, скачиванием торрентов - проблемы в блокировщике рекламы AdBlock. #хорошегоДня!


Статистика раздачи
Размер:  264 MB   |    Зарегистрирован:  4 года 6 месяцев   |    .torrent скачан:  25 раз   |   
Раздают:  1  
   
Загрузка...
 
Автор Сообщение

Galfimbul

avatar Galfimbul


Panzerpappa / Astromalist

Жанр: progressive rock/avant-prog
Страна-производитель диска: Norway
Год издания: 2012
Издатель (лейбл): Rune Grammofon
Номер по каталогу: RCD2135
Страна: Norway
Аудиокодек: FLAC (*.flac)
Тип рипа: image+.cue
Битрейт аудио: lossless
Источник (релизер): Собственный рип
Наличие сканов в содержимом раздачи: да
Треклист:
1. bati la takton!
2. anomia
3. femtende marsj
4. ugler i mosedoka
5. astromalist
6. knute pa traden
Exact Audio Copy V1.0 beta 3 from 29. August 2011

EAC extraction logfile from 23. January 2013, 21:52

Panzerpappa / Astromalist

Used drive : Optiarc DVD RW AD-7243S Adapter: 0 ID: 1

Read mode : SecureUtilize accurate stream : YesDefeat audio cache : YesMake use of C2 pointers : No

Read offset correction : 48Overread into Lead-In and Lead-Out : NoFill up missing offset samples with silence : YesDelete leading and trailing silent blocks : NoNull samples used in CRC calculations : YesUsed interface : Native Win32 interface for Win NT & 2000

Used output format : User Defined EncoderSelected bitrate : 768 kBit/sQuality : HighAdd ID3 tag : NoCommand line compressor : C:\Program Files\Exact Audio Copy\FLAC\FLAC.EXEAdditional command line options : V -8 -T "Genre=%genre%" -T "Artist=%artist%" -T "Title=%title%" -T "Album=%albumtitle%" -T "Date=%year%" -T "Tracknumber=%tracknr%" -T "Comment=%comment%" %source%

TOC of the extracted CD

Track | Start | Length | Start sector | End sector --------------------------------------------------------- 1 | 0:00.00 | 5:34.03 | 0 | 25052 2 | 5:34.03 | 4:12.73 | 25053 | 44025 3 | 9:47.01 | 4:02.64 | 44026 | 62239 4 | 13:49.65 | 7:37.26 | 62240 | 96540 5 | 21:27.16 | 7:40.49 | 96541 | 131089 6 | 29:07.65 | 5:05.35 | 131090 | 153999 7 | 34:13.25 | 9:14.24 | 154000 | 195573

Range status and errors

Selected range

Filename C:\Documents and Settings\S\Мои документы\Torrent раздача\Panzerpappa - Astromalist.wav

Peak level 94.3 % Extraction speed 3.8 X Range quality 100.0 % Test CRC 1A0F94FD Copy CRC 1A0F94FD Copy OK

No errors occurred

AccurateRip summary

Track 1 accurately ripped (confidence 2) [0F64AD05] (AR v2)Track 2 accurately ripped (confidence 2) [7E56D1D4] (AR v2)Track 3 accurately ripped (confidence 2) [C2A5D129] (AR v2)Track 4 accurately ripped (confidence 2) [ACA62354] (AR v2)Track 5 accurately ripped (confidence 2) [6BBC1B1E] (AR v2)Track 6 accurately ripped (confidence 2) [BF6C8655] (AR v2)Track 7 accurately ripped (confidence 2) [4426EDB1] (AR v2)

All tracks accurately ripped

End of status report

==== Log checksum 0C20B973531AB76BAD07D38DD2E091E1FE442B044501AFAF9020E0B0B242D657 ====
REM GENRE AvantgardeREM DATE 2012REM DISCID 650A2F07REM COMMENT "ExactAudioCopy v1.0b3"PERFORMER "Panzerpappa"TITLE "Astromalist"FILE "Panzerpappa - Astromalist.flac" WAVE TRACK 01 AUDIO TITLE "Bati La Takton" PERFORMER "Panzerpappa" ISRC NOFGR1235010 INDEX 01 00:00:00 TRACK 02 AUDIO TITLE "Anomia" PERFORMER "Panzerpappa" ISRC NOFGR1235020 INDEX 01 05:34:03 TRACK 03 AUDIO TITLE "Femtende Marsj" PERFORMER "Panzerpappa" ISRC NOFGR1235040 INDEX 01 09:47:01 TRACK 04 AUDIO TITLE "Ugler i Moseboka" PERFORMER "Panzerpappa" ISRC NOFGR1235030 INDEX 01 13:49:65 TRACK 05 AUDIO TITLE "Satam" PERFORMER "Panzerpappa" ISRC NOFGR1235050 INDEX 01 21:27:16 TRACK 06 AUDIO TITLE "Astromalist" PERFORMER "Panzerpappa" ISRC NOFGR1235060 INDEX 01 29:07:65 TRACK 07 AUDIO TITLE "Knute pa Traden" PERFORMER "Panzerpappa" ISRC NOFGR1235070 INDEX 01 34:13:25
s. berve - sax, wind controler, key, percussion, programming
t. gjllum - drums, percussion,korg, tronofon,synth. effects
a.k. krabberod - bass, percussion, piano
j. storlokken - guitars
GUESTS:
m. berckmans - bassoon, english horn
k. v. einarsen - flute
h-p. alfredsen - key
o. lindh - xylophone, vibraphone
t. nilsson - cello
e.h. amundsen - violin
h. bartram - viola
u. koomran - noises


Трекер:  [ 24-Янв-2013 17:30 ]

  

Скачать .torrent

Размер .torrent файла 11 KB


Размер: 264 MB
Хэш (hash) релиза: f550623ce7ce6a878f3f219227b8d5b0c6dd4ad0

Еще никто не оставлял запись к записи скачать торрент Panzerpappa - Astromalist - 2012, FLAC . Будь первым!

!Обратная связь