Скачать через торрент музыку Its A Beautiful Day - Choice Quality Stuff Anytime - 1971 - 2004, WavPack бесплатно без регистрации torrent

Если у вас наблюдаются проблемы со скриншотами, переходом по ссылками, скачиванием торрентов - проблемы в блокировщике рекламы AdBlock. #хорошегоДня!


Статистика раздачи
Размер:  231 MB   |    Зарегистрирован:  4 года 10 месяцев   |    .torrent скачан:  27 раз   |   
Раздают:  1  
   
Загрузка...
 
Автор Сообщение

Galfimbul

avatar Galfimbul


It's A Beautiful Day / Choice Quality Stuff / Anytime - 1971

Жанр: Progressive & Art-Rock
Страна-производитель диска: UK
Год издания: 2004
Издатель (лейбл): COE Rec.
Номер по каталогу: COE-193
Страна: USA
Аудиокодек: WavPack (*.wv)
Тип рипа: image+.cue
Битрейт аудио: lossless
Продолжительность: 0:34:55
Источник (релизер): Собственный релиз
Наличие сканов в содержимом раздачи: нет

Треклист:

1.Creed of Love
2. Bye Bye Baby
3. The Grand Camel Suite
4. No World for Glad
5. Lady Love
6. Words
7. Place of Dreams
8. Oranges and Apples
9. Anytime
10. Bitter Wine
11. Misery Loves
12. Company

Американец 1971(?) года: http://unionpeer.org/forum/viewtopic.php?t=965298
Exact Audio Copy V0.99 prebeta 5 from 4. May 2009

EAC extraction logfile from 24. January 2013, 11:50

It's A Beautiful Day / Choice Quality Stuff / Anytime.(UK)

Used drive : Optiarc DVD RW AD-7200S Adapter: 2 ID: 0

Read mode : Secure
Utilize accurate stream : Yes
Defeat audio cache : Yes
Make use of C2 pointers : No

Read offset correction : 48
Overread into Lead-In and Lead-Out : No
Fill up missing offset samples with silence : Yes
Delete leading and trailing silent blocks : No
Null samples used in CRC calculations : Yes
Used interface : Native Win32 interface for Win NT & 2000

Used output format : User Defined Encoder
Selected bitrate : 896 kBit/s
Quality : High
Add ID3 tag : No
Command line compressor : C:\Program Files (x86)\Exact Audio Copy\wavpack.exe
Additional command line options : -hlm %s

TOC of the extracted CD

Track | Start | Length | Start sector | End sector
---------------------------------------------------------
1 | 0:00.00 | 3:45.29 | 0 | 16903
2 | 3:45.29 | 3:28.31 | 16904 | 32534
3 | 7:13.60 | 2:54.53 | 32535 | 45637
4 | 10:08.38 | 3:11.07 | 45638 | 59969
5 | 13:19.45 | 2:53.41 | 59970 | 72985
6 | 16:13.11 | 3:03.46 | 72986 | 86756
7 | 19:16.57 | 3:08.47 | 86757 | 100903
8 | 22:25.29 | 2:31.54 | 100904 | 112282
9 | 24:57.08 | 3:45.01 | 112283 | 129158
10 | 28:42.09 | 3:09.56 | 129159 | 143389
11 | 31:51.65 | 2:59.09 | 143390 | 156823

Range status and errors

Selected range

Filename C:\Users\Bishop\Desktop\It's A Beautiful Day - Choice Quality Stuff_ Anytime.(UK)\It's A Beautiful Day - Choice Quality Stuff Anytime.(UK).wav

Peak level 100.0 %
Range quality 99.9 %
Test CRC D4E36015
Copy CRC D4E36015
Copy OK

No errors occurred

AccurateRip summary

Track 1 not present in database
Track 2 not present in database
Track 3 not present in database
Track 4 not present in database
Track 5 not present in database
Track 6 not present in database
Track 7 not present in database
Track 8 not present in database
Track 9 not present in database
Track 10 not present in database
Track 11 not present in database

None of the tracks are present in the AccurateRip database

End of status report
REM GENRE Rock
REM DATE 2004
REM DISCID 8F082A0B
REM COMMENT ExactAudioCopy v0.99pb5
PERFORMER "It's A Beautiful Day"
TITLE " Choice Quality Stuff / Anytime.(UK) "
FILE "It's A Beautiful Day - Choice Quality Stuff Anytime.(UK).wv" WAVE
TRACK 01 AUDIO
TITLE "Creed of Love"
INDEX 01 00:00:00
TRACK 02 AUDIO
TITLE "Bye Bye Baby "
INDEX 00 03:43:29
INDEX 01 03:45:29
TRACK 03 AUDIO
TITLE "The Grand Camel Suite"
INDEX 00 07:11:60
INDEX 01 07:13:60
TRACK 04 AUDIO
TITLE "No Word for Glad"
INDEX 00 10:06:38
INDEX 01 10:08:38
TRACK 05 AUDIO
TITLE "Lady Love"
INDEX 00 13:17:45
INDEX 01 13:19:45
TRACK 06 AUDIO
TITLE "Words"
INDEX 00 16:11:11
INDEX 01 16:13:11
TRACK 07 AUDIO
TITLE "Place of Dreams"
INDEX 00 19:14:57
INDEX 01 19:16:57
TRACK 08 AUDIO
TITLE "Oranges and Apples"
INDEX 00 22:23:29
INDEX 01 22:25:29
TRACK 09 AUDIO
TITLE "Anytime"
INDEX 00 24:55:08
INDEX 01 24:57:08
TRACK 10 AUDIO
TITLE "Bitter Wine"
INDEX 00 28:40:09
INDEX 01 28:42:09
TRACK 11 AUDIO
TITLE "Misery Loves Company"
INDEX 00 31:49:65
INDEX 01 31:51:65


Трекер:  [ 24-Янв-2013 17:30 ]

  

Скачать .torrent

Размер .torrent файла 19 KB


Размер: 231 MB
Хэш (hash) релиза: b66d52ee37e6e32dc62580a191fa9331aaf5f5ac

Еще никто не оставлял запись к записи скачать торрент Its A Beautiful Day - Choice Quality Stuff Anytime - 1971 - 2004, WavPack . Будь первым!

!Обратная связь