Скачать через торрент [iPad] Россия - царство тигров, медведей и вулканов Russland. Im Reich der Tiger, Baeren und Vulkane бесплатно русская версия torrent активатор

Если у вас наблюдаются проблемы со скриншотами, переходом по ссылками, скачиванием торрентов - проблемы в блокировщике рекламы AdBlock. #хорошегоДня!


Статистика раздачи
Размер:  2.38 GB   |    Зарегистрирован:  4 года 8 месяцев   |    .torrent скачан:  92 раза   |   
Раздают:  1  
   
Загрузка...
 
Автор Сообщение

Galfimbul

avatar Galfimbul


Россия - царство тигров, медведей и вулканов / Russland. Im Reich der Tiger, Baeren und Vulkane

Год выпуска: 2011
Страна: Германия, Россия, США
Студия: NDR Naturfilm, Norddeutscher Rundfunk (NDR), Parthenon Entertainment, Polyband GmbH, S4C, Studio Hamburg Doclights Produktion, Westdeutscher Rundfunk (WDR), Первый канал, Animal Planet US, National
Жанр: Документальный, флора, фауна
Продолжительность: 01:30:51
Перевод: Авторский (одноголосый закадровый) Курдов
Оригинальная аудиодорожка: есть
Cубтитры: русские и английские

Режиссёр: Уве Андерс, Кристиан Баумейстер/ Uwe Anders, Christian Baumeister
Сценарий: Генри Микс
Продюссер: Джон Ровер

В ролях: Зигфрид Ройч

Описание:
На немецкие киноэкраны вышел документальный фильм "Россия. В царстве тигров, медведей и вулканов". Это окно в Россию, неизвестную для западного человека и даже для многих россиян. "Россия – самая большая страна мира. Во многих своих частях она остается неизведанным миром, полным чудес. Пусть сохранится этот мир и для поколений, которые придут после нас". С этих слов начинается документальный фильм "Россия. В царстве тигров, медведей и вулканов" о дикой природе страны. Фильм на этой неделе выходит в кинопрокат Германии. Российские зрители могли видеть кадры из него на экранах своих телевизоров: 90-минутная кинолента основана на шестисерийной телевизионной передаче "Дикая природа России". Телефильм снят в сотрудничестве с британским телеканалом National Geographic, немецкими телекомпаниями NDR и WDR, российским "Первым каналом" и рядом других спонсоров. Группу немецких кинематографистов возглавлял Йорн Рёвер (Jörn Röver), биолог по образованию, журналист, режиссер и продюсер, специализирующийся на научно-популярных фильмах о флоре и фауне. Главный оператор проекта – также известный немецкий документалист, ветеринар по своей первой профессии Хенри М. Микс (Henry M. Mix). Документальный фильм "Россия. В царстве тигров, медведей и вулканов" показывает, как это понятно уже из названия, исключительно природные ландшафты и животных. Людей в кадре нет, как и нет упоминания вещей, не имеющих отношения к флоре и фауне.

Доп. информация:


Качество исходника: BDRemux - Россия - царство тигров, медведей и вулканов / Russland. Im Reich der Tiger, Baeren und Vulkane / 2010 / АП (Курдов), СТ / BDRip (1080p)
Качество: BDRip
Разрешение: 1024х544
Формат: MP4
Видео: H.264, 1.882 , 3500kbit/s; 23.976fps

Аудио 1: Russian/AVO, AAC, 126kbit/s; 2ch; 48KHz
Аудио 2: English/Original, AAC, 127kbit/s; 2ch; 48KHz
XID: Apple:vendor_id:2011-576706contentID: 576706Screenwriters: Джон РоверProducers: Генри МиксDirector: Уве Андерс, Кристиан Баумейстер, Оливер ГётцльCast: Зигфрид РойчLong Description: В царстве тигров, медведей и вулканов" о дикой природе страны. Фильм на этой неделе выходит в кинопрокат Германии. Российские зрители могли видеть кадры из него на экранах своих телевизоров: 90-минутная кинолента основана на шестисерийной телевизионной передаче "Дикая природа России". Телефильм снят в сотрудничестве с британским телеканалом National Geographic, немецкими телекомпаниями NDR и WDR, российским "Первым каналом" и рядом других спонсоровDescription: "Россия – самая большая страна мира. Во многих своих частях она остается неизведанным миром, полным чудес. Пусть сохранится этот мир и для поколений, которые придут после нас". С этих слов начинается документальный фильм "Россия.Release Date: 2011-01-14T03:00:00ZGenre: DocumentaryArtist: Уве Андерс, Кристиан Баумейстер, Оливер ГётцльName: Россия - царство тигров, медведей и вулканов
GeneralComplete name : /Users/imac/HandBrake/Rossija-tsarstvo.tigrov.medvedey.i.vulkanov.2011.x264.BDRip.1024x.m4vFormat : MPEG-4Codec ID : M4VFile size : 2.38 GiBDuration : 1h 30mnOverall bit rate mode : VariableOverall bit rate : 3 758 KbpsMovie name : Россия - царство тигров, медведей и вулкановPerformer : Уве Андерс, Кристиан Баумейстер, Оливер ГётцльGenre : DocumentaryRecorded date : UTC 2011-01-14 03:00:00Encoded date : UTC 2013-01-24 10:30:48Tagged date : UTC 2013-01-24 10:31:56Cover : Yesdesc : "Россия – самая большая страна мира. Во многих своих частях она остается неизведанным миром, полным чудес. Пусть сохранится этот мир и для поколений, которые придут после нас". С этих слов начинается документальный фильм "Россия.ldes : В царстве тигров, медведей и вулканов" о дикой природе страны. Фильм на этой неделе выходит в кинопрокат Германии. Российские зрители могли видеть кадры из него на экранах своих телевизоров: 90-минутная кинолента основана на шестисерийной телевизионной передаче "Дикая природа России". Телефильм снят в сотрудничестве с британским телеканалом National Geographic, немецкими телекомпаниями NDR и WDR, российским "Первым каналом" и рядом других спонсоровstik : 9rtng : 0cnID : 576706xid : Apple:vendor_id:2011-576706iTunMOVI : <?xml version="1.0" encoding="UTF-8"?> / <!DOCTYPE plist PUBLIC "-//Apple//DTD PLIST 1.0//EN" "http://www.apple.com/DTDs/PropertyList-1.0.dtd"> / <plist version="1.0"> / <dict> / <key>cast</key> / <array> / <dict> / <key>name</key> / <string>Зигфрид Ройч</string> / </dict> / </array> / <key>directors</key> / <array> / <dict> / <key>name</key> / <string> Уве Андерс</string> / </dict> / <dict> / <key>name</key> / <string>Кристиан Баумейстер</string> / </dict> / <dict> / <key>name</key> / <string>Оливер Гётцль</string> / </dict> / </array> / <key>producers</key> / <array> / <dict> / <key>name</key> / <string>Генри Микс</string> / </dict> / </array> / <key>screenwriters</key> / <array> / <dict> / <key>name</key> / <string>Джон Ровер</string> / </dict> / </array> / </dict> / </plist>

Video #1ID : 1Format : AVCFormat/Info : Advanced Video CodecFormat profile : <a href="mailto:High@L3.2Format" class="postLink">High@L3.2Format</a> settings, CABAC : YesFormat settings, ReFrames : 9 framesCodec ID : avc1Codec ID/Info : Advanced Video CodingDuration : 1h 30mnBit rate mode : VariableBit rate : 3 500 KbpsWidth : 1 024 pixelsHeight : 544 pixelsDisplay aspect ratio : 1.882Frame rate mode : VariableFrame rate : 23.976 fpsMinimum frame rate : 23.974 fpsMaximum frame rate : 23.981 fpsColor space : YUVChroma subsampling : 4:2:0Bit depth : 8 bitsScan type : ProgressiveBits/(Pixel*Frame) : 0.262Stream size : 2.22 GiB (93%)Writing library : x264 core 120Encoding settings : cabac=1 / ref=9 / deblock=1:0:0 / analyse=0x3:0x113 / me=umh / subme=9 / psy=1 / psy_rd=1.00:0.00 / mixed_ref=1 / me_range=32 / chroma_me=1 / trellis=1 / 8x8dct=1 / cqm=0 / deadzone=21,11 / fast_pskip=1 / chroma_qp_offset=-2 / threads=12 / sliced_threads=0 / nr=0 / decimate=1 / interlaced=0 / bluray_compat=0 / constrained_intra=0 / bframes=6 / b_pyramid=2 / b_adapt=2 / b_bias=0 / direct=1 / weightb=1 / open_gop=0 / weightp=2 / keyint=240 / keyint_min=24 / scenecut=40 / intra_refresh=0 / rc_lookahead=40 / rc=2pass / mbtree=1 / bitrate=3500 / ratetol=1.0 / qcomp=0.60 / qpmin=3 / qpmax=69 / qpstep=4 / cplxblur=20.0 / qblur=0.5 / ip_ratio=1.40 / aq=1:1.00Language : EnglishEncoded date : UTC 2013-01-24 10:30:49Tagged date : UTC 2013-01-24 10:31:42Color primaries : BT.709-5, BT.1361, IEC 61966-2-4, SMPTE RP177Transfer characteristics : BT.709-5, BT.1361Matrix coefficients : BT.709-5, BT.1361, IEC 61966-2-4 709, SMPTE RP177

Video #2ID : 7Format : JPEGCodec ID : jpegDuration : 1h 30mnBit rate mode : VariableBit rate : 923 bpsWidth : 640 pixelsHeight : 340 pixelsDisplay aspect ratio : 1.882Frame rate mode : VariableFrame rate : 0.002 fpsMinimum frame rate : 0.001 fpsMaximum frame rate : 0.005 fpsColor space : YUVChroma subsampling : 4:2:0Bit depth : 8 bitsCompression mode : LossyBits/(Pixel*Frame) : 2.121Stream size : 564 KiB (0%)Language : EnglishEncoded date : UTC 2013-01-24 10:31:56Tagged date : UTC 2013-01-24 10:31:56

Audio #1ID : 2Format : AACFormat/Info : Advanced Audio CodecFormat profile : LCCodec ID : 40Duration : 1h 30mnBit rate mode : VariableBit rate : 126 KbpsMaximum bit rate : 176 KbpsChannel(s) : 2 channelsChannel positions : Front: L RSampling rate : 48.0 KHzCompression mode : LossyStream size : 81.6 MiB (3%)Language : RussianEncoded date : UTC 2013-01-24 10:30:49Tagged date : UTC 2013-01-24 10:31:47

Audio #2ID : 3Format : AACFormat/Info : Advanced Audio CodecFormat profile : LCCodec ID : 40Duration : 1h 30mnBit rate mode : VariableBit rate : 127 KbpsMaximum bit rate : 174 KbpsChannel(s) : 2 channelsChannel positions : Front: L RSampling rate : 48.0 KHzCompression mode : LossyStream size : 82.4 MiB (3%)Language : EnglishEncoded date : UTC 2013-01-24 10:30:49Tagged date : UTC 2013-01-24 10:31:52

Text #1ID : 4Format : Timed textMuxing mode : sbtlCodec ID : tx3gDuration : 1h 26mnBit rate mode : VariableBit rate : 42 bpsStream size : 26.9 KiB (0%)Language : RussianEncoded date : UTC 2013-01-24 10:30:49Tagged date : UTC 2013-01-24 10:31:52

Text #2ID : 5Format : Timed textMuxing mode : sbtlCodec ID : tx3gDuration : 1h 26mnBit rate mode : VariableBit rate : 24 bpsStream size : 15.1 KiB (0%)Language : EnglishEncoded date : UTC 2013-01-24 10:30:49Tagged date : UTC 2013-01-24 10:31:52

Text #3ID : 6Format : Apple textCodec ID : textDuration : 1h 30mnBit rate mode : ConstantBit rate : 0 bpsStream size : 260 Bytes (0%)Language : EnglishEncoded date : UTC 2013-01-24 10:31:52Tagged date : UTC 2013-01-24 10:31:52

Menu00:00:00.000 : 00:00:00.00000:10:28.377 : 00:10:28.28000:16:43.042 : 00:16:42.88000:28:13.523 : 00:28:13.40000:43:38.447 : 00:43:38.36000:56:15.703 : 00:56:15.60001:00:18.028 : 01:00:17.92001:05:03.146 : 01:05:03.04001:11:54.598 : 01:11:54.44001:27:21.315 : 01:27:21.040
x264 [info]: frame I:893 Avg QP:16.66 size:121667 PSNR Mean Y:46.33 U:50.29 V:50.52 Avg:47.26 Global:46.41x264 [info]: frame P:27877 Avg QP:19.44 size: 39160 PSNR Mean Y:44.15 U:49.00 V:49.34 Avg:45.19 Global:43.72x264 [info]: frame B:101924 Avg QP:23.01 size: 11599 PSNR Mean Y:41.69 U:48.03 V:48.38 Avg:42.93 Global:41.72x264 [info]: consecutive B-frames: 1.7% 2.2% 4.9% 25.3% 17.7% 34.6% 13.5%x264 [info]: mb I I16..4: 10.1% 62.3% 27.6%x264 [info]: mb P I16..4: 1.5% 10.5% 2.8% P16..4: 33.9% 24.5% 17.2% 0.0% 0.0% skip: 9.6%x264 [info]: mb B I16..4: 0.2% 2.4% 0.9% B16..8: 37.4% 9.3% 3.6% direct: 5.6% skip:40.7% L0:43.0% L1:44.3% BI:12.6%x264 [info]: 8x8 transform intra:69.4% inter:62.3%x264 [info]: coded y,uvDC,uvAC intra: 90.2% 74.4% 41.1% inter: 30.7% 23.3% 3.2%x264 [info]: i16 v,h,dc,p: 28% 31% 7% 33%x264 [info]: i8 v,h,dc,ddl,ddr,vr,hd,vl,hu: 5% 10% 3% 10% 16% 13% 17% 11% 14%x264 [info]: i4 v,h,dc,ddl,ddr,vr,hd,vl,hu: 4% 11% 2% 9% 15% 12% 17% 11% 18%x264 [info]: i8c dc,h,v,p: 40% 32% 15% 14%x264 [info]: Weighted P-Frames: Y:6.0% UV:1.9%x264 [info]: ref P L0: 45.2% 13.2% 18.5% 5.9% 5.7% 3.5% 3.7% 1.9% 2.2% 0.2% 0.0%x264 [info]: ref B L0: 73.1% 12.5% 5.6% 3.1% 2.3% 2.1% 1.0% 0.4%x264 [info]: ref B L1: 92.1% 7.9%x264 [info]: SSIM Mean Y:0.9727388 (15.645db)x264 [info]: PSNR Mean Y:42.248 U:48.255 V:48.597 Avg:43.440 Global:42.100 kb/s:3496.63


Трекер:  [ 24-Янв-2013 17:29 ]

  

Скачать .torrent

Размер .torrent файла 24 KB


Размер: 2.38 GB
Хэш (hash) релиза: 9b36283ec6623d126e98feee0704e7433e06c3ca

Еще никто не оставлял запись к записи скачать торрент [iPad] Россия - царство тигров, медведей и вулканов Russland. Im Reich der Tiger, Baeren und Vulkane . Будь первым!

!Обратная связь