Скачать через торрент музыку Edwyn Collins - Losing Sleep - 2010, FLAC бесплатно без регистрации torrent

Если у вас наблюдаются проблемы со скриншотами, переходом по ссылками, скачиванием торрентов - проблемы в блокировщике рекламы AdBlock. #хорошегоДня!


Статистика раздачи
Размер:  275 MB   |    Зарегистрирован:  4 года 6 месяцев   |    .torrent скачан:  22 раза   |   
Раздают:  1  
   
Загрузка...
 
Автор Сообщение

Galfimbul

avatar Galfimbul


Edwyn Collins / Losing Sleep


Жанр: Indie Pop Rock, Retro Pop, Britpop
Страна-производитель диска: United Kingdom
Год издания: 2010
Издатель (лейбл): Heavenly Recordings
Номер по каталогу: HVNLP81CD
Страна: United Kingdom
Аудиокодек: FLAC (*.flac)
Тип рипа: image+.cue
Битрейт аудио: lossless
Источник (релизер): Собственныи Диск!
Наличие сканов в содержимом раздачи: да
Треклист:

1. Losing Sleep
2. What Is My Role
3. Do It Again
4. Humble
5. Bored
6. In Your Eyes
7. I Still Believe In You
8. Come Tomorrow, Come Today
9. Over The Hill
10. It Dawns On Me
11. All My Days
12. Searching For The Truth
Exact Audio Copy V1.0 beta 3 from 29. August 2011

EAC extraction logfile from 23. January 2013, 19:53

Edwyn Collins / Losing Sleep

Used drive : LITE-ON DVDRW SOHW-1653S Adapter: 0 ID: 0

Read mode : SecureUtilize accurate stream : YesDefeat audio cache : YesMake use of C2 pointers : No

Read offset correction : 12Overread into Lead-In and Lead-Out : NoFill up missing offset samples with silence : YesDelete leading and trailing silent blocks : NoNull samples used in CRC calculations : YesUsed interface : Native Win32 interface for Win NT & 2000

Used output format : User Defined EncoderSelected bitrate : 128 kBit/sQuality : HighAdd ID3 tag : YesCommand line compressor : C:\Program Files\FLAC\flac.exeAdditional command line options : -V -8 -T "Date=%year%" -T "Genre=%genre%" %source%

TOC of the extracted CD

Track | Start | Length | Start sector | End sector --------------------------------------------------------- 1 | 0:00.00 | 3:23.08 | 0 | 15232 2 | 3:23.08 | 4:21.10 | 15233 | 34817 3 | 7:44.18 | 3:14.36 | 34818 | 49403 4 | 10:58.54 | 3:22.50 | 49404 | 64603 5 | 14:21.29 | 2:59.74 | 64604 | 78102 6 | 17:21.28 | 4:25.60 | 78103 | 98037 7 | 21:47.13 | 4:07.38 | 98038 | 116600 8 | 25:54.51 | 3:33.13 | 116601 | 132588 9 | 29:27.64 | 3:36.32 | 132589 | 148820 10 | 33:04.21 | 3:55.61 | 148821 | 166506 11 | 37:00.07 | 3:16.31 | 166507 | 181237 12 | 40:16.38 | 2:18.22 | 181238 | 191609

Range status and errors

Selected range

Filename P:\Edwyn Collins - Losing Sleep\Edwyn Collins - Losing Sleep.wav

Peak level 98.1 % Extraction speed 6.3 X Range quality 100.0 % Copy CRC 7FEDC73C Copy OK

No errors occurred

AccurateRip summary

Track 1 accurately ripped (confidence 8) [B36DC673] (AR v2)Track 2 accurately ripped (confidence 8) [71B35112] (AR v2)Track 3 accurately ripped (confidence 8) [4619A5A2] (AR v2)Track 4 accurately ripped (confidence 8) [074C7E0A] (AR v2)Track 5 accurately ripped (confidence 8) [8BE30FE2] (AR v2)Track 6 accurately ripped (confidence 7) [D6129ED4] (AR v2)Track 7 accurately ripped (confidence 8) [6C3177AE] (AR v2)Track 8 accurately ripped (confidence 8) [AE35AA38] (AR v2)Track 9 accurately ripped (confidence 8) [035B05C4] (AR v2)Track 10 accurately ripped (confidence 8) [0648FCEF] (AR v2)Track 11 accurately ripped (confidence 8) [DC6359A7] (AR v2)Track 12 accurately ripped (confidence 8) [610C5DF6] (AR v2)

All tracks accurately ripped

End of status report

==== Log checksum D6A92165A600707BA06AB90FFFCF9118866BE045FB8F848280601D3EC08DE0E4 ====
REM DISCID A209FA0CREM COMMENT "ExactAudioCopy v1.0b3"PERFORMER "Edwyn Collins"TITLE "Losing Sleep"FILE "Edwyn Collins - Losing Sleep.flac" WAVE TRACK 01 AUDIO TITLE "Losing Sleep" PERFORMER "Edwyn Collins" INDEX 01 00:00:00 TRACK 02 AUDIO TITLE "What Is My Role" PERFORMER "Edwyn Collins" INDEX 00 03:22:73 INDEX 01 03:23:08 TRACK 03 AUDIO TITLE "Do It Again" PERFORMER "Edwyn Collins" INDEX 00 07:43:37 INDEX 01 07:44:18 TRACK 04 AUDIO TITLE "Humble" PERFORMER "Edwyn Collins" INDEX 00 10:57:32 INDEX 01 10:58:54 TRACK 05 AUDIO TITLE "Come Tomorrow, Come Today" PERFORMER "Edwyn Collins" INDEX 01 14:21:29 TRACK 06 AUDIO TITLE "Bored" PERFORMER "Edwyn Collins" INDEX 00 17:20:37 INDEX 01 17:21:28 TRACK 07 AUDIO TITLE "In Your Eyes" PERFORMER "Edwyn Collins" INDEX 00 21:47:04 INDEX 01 21:47:13 TRACK 08 AUDIO TITLE "I Still Believe In You" PERFORMER "Edwyn Collins" INDEX 01 25:54:51 TRACK 09 AUDIO TITLE "Over The Hill" PERFORMER "Edwyn Collins" INDEX 01 29:27:64 TRACK 10 AUDIO TITLE "It Dawns On Me" PERFORMER "Edwyn Collins" INDEX 00 33:04:01 INDEX 01 33:04:21 TRACK 11 AUDIO TITLE "All My Days" PERFORMER "Edwyn Collins" INDEX 00 36:58:07 INDEX 01 37:00:07 TRACK 12 AUDIO TITLE "Searching For The Truth" PERFORMER "Edwyn Collins" INDEX 00 40:15:69 INDEX 01 40:16:38


Трекер:  [ 24-Янв-2013 10:44 ]

  

Скачать .torrent

Размер .torrent файла 11 KB


Размер: 275 MB
Хэш (hash) релиза: d368f8afd7a605dda8e0f2c4d1ae93cdc5be9a81

Еще никто не оставлял запись к записи скачать торрент Edwyn Collins - Losing Sleep - 2010, FLAC . Будь первым!

!Обратная связь