Скачать через торрент музыку Little Feat - Waiting for Columbus 2CD - 1978 бесплатно без регистрации torrent

Если у вас наблюдаются проблемы со скриншотами, переходом по ссылками, скачиванием торрентов - проблемы в блокировщике рекламы AdBlock. #хорошегоДня!


Статистика раздачи
Размер:  537 MB   |    Зарегистрирован:  4 года 6 месяцев   |    .torrent скачан:  40 раз   |   
Раздают:  1  
   
Загрузка...
 
Автор Сообщение

Galfimbul

avatar Galfimbul


Little Feat - Waiting for Columbus

Жанр: Southern Rock, Blues Rock, Classic Rock
Страна-производитель диска: USA
Год издания диска: 2010
Издатель (лейбл): Mobile Fidelity Sound Lab
Номер по каталогу: UCDC2786
Страна: USA
Аудио кодек: FLAC (*.flac)
Тип рипа: tracks+.cue
Битрейт аудио: lossless
Продолжительность: 01:21:43
Источник (релизер): artmuss
Наличие сканов в содержимом раздачи:
Треклист:
01. Join The Band 01:52
02. Fat Man in the Bathtub 04:54
03. All That You Dream 04:29
04. Oh Atlanta 04:18
05. Old Folks' Boogie 04:37
06. Time Loves a Hero 04:17
07. Day or Night 05:28
08. Mercenary Territory 04:34
09. Spanish Moon 05:34
Exact Audio Copy V1.0 beta 1 from 15. November 2010

EAC extraction logfile from 2. January 2011, 22:04

Little Feat / Waiting for Columbus UDCD 2-786 Disc 1 of 2

Used drive : _NEC DVD+-RW ND-6650A Adapter: 0 ID: 0

Read mode : SecureUtilize accurate stream : YesDefeat audio cache : YesMake use of C2 pointers : No

Read offset correction : 48Overread into Lead-In and Lead-Out : NoFill up missing offset samples with silence : YesDelete leading and trailing silent blocks : NoNull samples used in CRC calculations : YesUsed interface : Native Win32 interface for Win NT & 2000Gap handling : Appended to previous track

Used output format : User Defined EncoderSelected bitrate : 320 kBit/sQuality : HighAdd ID3 tag : NoCommand line compressor : C:\Program Files\Exact Audio Copy\FLAC\FLAC.EXEAdditional command line options : -V -8 -T "artist=%a" -T "title=%t" -T "album=%g" -T "date=%y" -T "tracknumber=%n" -T "genre=%m" %s

TOC of the extracted CD

Track | Start | Length | Start sector | End sector --------------------------------------------------------- 1 | 0:00.00 | 1:52.18 | 0 | 8417 2 | 1:52.18 | 4:54.11 | 8418 | 30478 3 | 6:46.29 | 4:29.44 | 30479 | 50697 4 | 11:15.73 | 4:18.68 | 50698 | 70115 5 | 15:34.66 | 4:37.70 | 70116 | 90960 6 | 20:12.61 | 4:17.48 | 90961 | 110283 7 | 24:30.34 | 5:28.01 | 110284 | 134884 8 | 29:58.35 | 4:34.47 | 134885 | 155481 9 | 34:33.07 | 5:34.29 | 155482 | 180560

Track 1

Filename C:\Documents and Settings\Mark 2\My Documents\Downloads\Little Feat - Waiting for Columbus UDCD 2-786 Disc 1 of 2 (2010) [FLAC]\01 - Join The Band.wav

Pre-gap length 0:00:02.00

Peak level 75.2 % Extraction speed 1.0 X Track quality 99.9 % Test CRC C9B25CE7 Copy CRC C9B25CE7 Accurately ripped (confidence 3) [4B79976E] Copy OK

Track 2

Filename C:\Documents and Settings\Mark 2\My Documents\Downloads\Little Feat - Waiting for Columbus UDCD 2-786 Disc 1 of 2 (2010) [FLAC]\02 - Fat Man in the Bathtub.wav

Peak level 98.6 % Extraction speed 2.4 X Track quality 100.0 % Test CRC 7956067C Copy CRC 7956067C Accurately ripped (confidence 3) [552BC35B] Copy OK

Track 3

Filename C:\Documents and Settings\Mark 2\My Documents\Downloads\Little Feat - Waiting for Columbus UDCD 2-786 Disc 1 of 2 (2010) [FLAC]\03 - All That You Dream.wav

Peak level 96.8 % Extraction speed 2.7 X Track quality 100.0 % Test CRC BF27B7C4 Copy CRC BF27B7C4 Accurately ripped (confidence 3) [5BC6E742] Copy OK

Track 4

Filename C:\Documents and Settings\Mark 2\My Documents\Downloads\Little Feat - Waiting for Columbus UDCD 2-786 Disc 1 of 2 (2010) [FLAC]\04 - Oh Atlanta.wav

Peak level 99.7 % Extraction speed 2.9 X Track quality 100.0 % Test CRC 6235FC83 Copy CRC 6235FC83 Accurately ripped (confidence 3) [2823F63A] Copy OK

Track 5

Filename C:\Documents and Settings\Mark 2\My Documents\Downloads\Little Feat - Waiting for Columbus UDCD 2-786 Disc 1 of 2 (2010) [FLAC]\05 - Old Folks' Boogie.wav

Peak level 99.0 % Extraction speed 2.3 X Track quality 99.9 % Test CRC AB150E05 Copy CRC AB150E05 Accurately ripped (confidence 3) [7DE3F8AC] Copy OK

Track 6

Filename C:\Documents and Settings\Mark 2\My Documents\Downloads\Little Feat - Waiting for Columbus UDCD 2-786 Disc 1 of 2 (2010) [FLAC]\06 - Time Loves a Hero.wav

Peak level 99.0 % Extraction speed 3.2 X Track quality 100.0 % Test CRC 3DE3AA33 Copy CRC 3DE3AA33 Accurately ripped (confidence 3) [767D24D7] Copy OK

Track 7

Filename C:\Documents and Settings\Mark 2\My Documents\Downloads\Little Feat - Waiting for Columbus UDCD 2-786 Disc 1 of 2 (2010) [FLAC]\07 - Day or Night.wav

Peak level 98.9 % Extraction speed 2.8 X Track quality 100.0 % Test CRC A105098E Copy CRC A105098E Accurately ripped (confidence 3) [D3043950] Copy OK

Track 8

Filename C:\Documents and Settings\Mark 2\My Documents\Downloads\Little Feat - Waiting for Columbus UDCD 2-786 Disc 1 of 2 (2010) [FLAC]\08 - Mercenary Territory.wav

Peak level 98.9 % Extraction speed 2.4 X Track quality 99.9 % Test CRC 5B730BB5 Copy CRC 5B730BB5 Accurately ripped (confidence 3) [FD4FE301] Copy OK

Track 9

Filename C:\Documents and Settings\Mark 2\My Documents\Downloads\Little Feat - Waiting for Columbus UDCD 2-786 Disc 1 of 2 (2010) [FLAC]\09 - Spanish Moon.wav

Peak level 98.3 % Extraction speed 2.7 X Track quality 99.9 % Test CRC 2244BCC3 Copy CRC 2244BCC3 Accurately ripped (confidence 3) [8C1CBFB8] Copy OK

All tracks accurately ripped

No errors occurred

End of status report
REM GENRE RockREM DATE 2010REM DISCID 67096709REM COMMENT "ExactAudioCopy v1.0b1"FILE "01 - Join The Band.wav" WAVE TRACK 01 AUDIO INDEX 01 00:00:00FILE "02 - Fat Man in the Bathtub.wav" WAVE TRACK 02 AUDIO INDEX 01 00:00:00FILE "03 - All That You Dream.wav" WAVE TRACK 03 AUDIO INDEX 01 00:00:00FILE "04 - Oh Atlanta.wav" WAVE TRACK 04 AUDIO INDEX 01 00:00:00FILE "05 - Old Folks' Boogie.wav" WAVE TRACK 05 AUDIO INDEX 01 00:00:00FILE "06 - Time Loves a Hero.wav" WAVE TRACK 06 AUDIO INDEX 01 00:00:00FILE "07 - Day or Night.wav" WAVE TRACK 07 AUDIO INDEX 01 00:00:00FILE "08 - Mercenary Territory.wav" WAVE TRACK 08 AUDIO INDEX 01 00:00:00FILE "09 - Spanish Moon.wav" WAVE TRACK 09 AUDIO INDEX 01 00:00:00
-----------------------

DON'T MODIFY THIS FILE

-----------------------

PERFORMER: auCDtect Task Manager, ver. 1.5.1RC4 build 1.5.1.5Copyright (c) 2008-2010 y-soft. All rights reservedhttp://y-soft.org

ANALYZER: auCDtect: CD records authenticity detector, version 0.8.2Copyright (c) 2004 Oleg Berngardt. All rights reserved.Copyright (c) 2004 Alexander Djourik. All rights reserved.

FILE: 09 - Spanish Moon.flac Size: 38767389 Hash: 992DAA6DF85DCDF4257338730CE4BDF0 Accuracy: -m8 Conclusion: CDDA 99% Signature: D03534E9AD92C90FD770DDEAAC09C044724E0AC9FILE: 08 - Mercenary Territory.flac Size: 32689611 Hash: D4F8E2AB52E305100BC565E3C6E1B97D Accuracy: -m8 Conclusion: CDDA 100% Signature: 42911D477C821D1CF6AE944C299F678005E010D0FILE: 07 - Day or Night.flac Size: 38585555 Hash: 817F4B8A838643F0044D432660B9D929 Accuracy: -m8 Conclusion: CDDA 100% Signature: 7B72059250C4033A1457857D1F6ABC7ED01922BFFILE: 06 - Time Loves a Hero.flac Size: 30981321 Hash: 85807A5E56463723D261CF552DE52B31 Accuracy: -m8 Conclusion: CDDA 85% Signature: A407ECF365FB9448C137AF3143B7309AFF66730AFILE: 05 - Old Folks' Boogie.flac Size: 30322573 Hash: A241BAD0A0A05C0DC03D0D7C8CD1CAEC Accuracy: -m8 Conclusion: CDDA 100% Signature: 40E08230155C019F28566900524B4011C4CCCE00FILE: 04 - Oh Atlanta.flac Size: 31364285 Hash: 882DE6DBE65EBDE16295043695807E48 Accuracy: -m8 Conclusion: CDDA 100% Signature: DBC5534A0436726F12095CEDE535833AB9753715FILE: 03 - All That You Dream.flac Size: 31264530 Hash: 08BF06A24B3BC2FC499B36BF4A3CFC25 Accuracy: -m8 Conclusion: CDDA 100% Signature: F59FF41DF7470FE7AD6AA15256A7991D91695A5DFILE: 02 - Fat Man in the Bathtub.flac Size: 34801697 Hash: 664AAD45AA93B982E653CB061C0A3D76 Accuracy: -m8 Conclusion: CDDA 100% Signature: 601407E98F3879346C94F19FF76B4CFF7B8342F6FILE: 01 - Join The Band.flac Size: 10203130 Hash: D2B228CDC92AD142410068200BD52B7B Accuracy: -m8 Conclusion: CDDA 100% Signature: 25B8C3723155BF63784DB11018E4201410B57A88
01. Dixie Chicken 08:57
02. Tripe Face Boogie 07:07
03. Rocket in my Pocket 03:51
04. Willin? 04:51
05. Don't Bogart That Joint 01:01
06. A Apolitical Blues 03:50
07. Sailin' Shoes 06:21
08. Feats Don't Fail Me Now 05:33
Exact Audio Copy V1.0 beta 1 from 15. November 2010

EAC extraction logfile from 2. January 2011, 22:36

Little Feat / Waiting for Columbus UDCD 2-786 Disc 2 of 2

Used drive : _NEC DVD+-RW ND-6650A Adapter: 0 ID: 0

Read mode : SecureUtilize accurate stream : YesDefeat audio cache : YesMake use of C2 pointers : No

Read offset correction : 48Overread into Lead-In and Lead-Out : NoFill up missing offset samples with silence : YesDelete leading and trailing silent blocks : NoNull samples used in CRC calculations : YesUsed interface : Native Win32 interface for Win NT & 2000Gap handling : Appended to previous track

Used output format : User Defined EncoderSelected bitrate : 320 kBit/sQuality : HighAdd ID3 tag : NoCommand line compressor : C:\Program Files\Exact Audio Copy\FLAC\FLAC.EXEAdditional command line options : -V -8 -T "artist=%a" -T "title=%t" -T "album=%g" -T "date=%y" -T "tracknumber=%n" -T "genre=%m" %s

TOC of the extracted CD

Track | Start | Length | Start sector | End sector --------------------------------------------------------- 1 | 0:00.00 | 8:57.74 | 0 | 40348 2 | 8:57.74 | 7:07.09 | 40349 | 72382 3 | 16:05.08 | 3:51.33 | 72383 | 89740 4 | 19:56.41 | 4:51.59 | 89741 | 111624 5 | 24:48.25 | 1:01.24 | 111625 | 116223 6 | 25:49.49 | 3:50.19 | 116224 | 133492 7 | 29:39.68 | 6:21.23 | 133493 | 162090 8 | 36:01.16 | 5:33.31 | 162091 | 187096

Track 1

Filename C:\Documents and Settings\Mark 2\My Documents\Downloads\Little Feat - Waiting for Columbus UDCD 2-786 Disc 2 of 2 (2010) [FLAC]\01 - Dixie Chicken.wav

Pre-gap length 0:00:02.00

Peak level 97.1 % Extraction speed 2.6 X Track quality 100.0 % Test CRC BA559F33 Copy CRC BA559F33 Accurately ripped (confidence 3) [83A516BC] Copy OK

Track 2

Filename C:\Documents and Settings\Mark 2\My Documents\Downloads\Little Feat - Waiting for Columbus UDCD 2-786 Disc 2 of 2 (2010) [FLAC]\02 - Tripe Face Boogie.wav

Peak level 98.5 % Extraction speed 2.8 X Track quality 100.0 % Test CRC 31227586 Copy CRC 31227586 Accurately ripped (confidence 3) [043DB811] Copy OK

Track 3

Filename C:\Documents and Settings\Mark 2\My Documents\Downloads\Little Feat - Waiting for Columbus UDCD 2-786 Disc 2 of 2 (2010) [FLAC]\03 - Rocket in my Pocket.wav

Peak level 98.4 % Extraction speed 2.1 X Track quality 99.9 % Test CRC 91576354 Copy CRC 91576354 Accurately ripped (confidence 3) [A1729775] Copy OK

Track 4

Filename C:\Documents and Settings\Mark 2\My Documents\Downloads\Little Feat - Waiting for Columbus UDCD 2-786 Disc 2 of 2 (2010) [FLAC]\04 - Willin´.wav

Peak level 97.9 % Extraction speed 3.3 X Track quality 100.0 % Test CRC 81890A48 Copy CRC 81890A48 Accurately ripped (confidence 3) [DCEA8951] Copy OK

Track 5

Filename C:\Documents and Settings\Mark 2\My Documents\Downloads\Little Feat - Waiting for Columbus UDCD 2-786 Disc 2 of 2 (2010) [FLAC]\05 - Don't Bogart That Joint.wav

Peak level 74.2 % Extraction speed 2.3 X Track quality 100.0 % Test CRC 8081C276 Copy CRC 8081C276 Accurately ripped (confidence 3) [C6143406] Copy OK

Track 6

Filename C:\Documents and Settings\Mark 2\My Documents\Downloads\Little Feat - Waiting for Columbus UDCD 2-786 Disc 2 of 2 (2010) [FLAC]\06 - A Apolitical Blues.wav

Peak level 99.0 % Extraction speed 3.2 X Track quality 100.0 % Test CRC B00DAB60 Copy CRC B00DAB60 Accurately ripped (confidence 3) [E1F1F386] Copy OK

Track 7

Filename C:\Documents and Settings\Mark 2\My Documents\Downloads\Little Feat - Waiting for Columbus UDCD 2-786 Disc 2 of 2 (2010) [FLAC]\07 - Sailin' Shoes.wav

Peak level 98.5 % Extraction speed 3.3 X Track quality 100.0 % Test CRC 0393DD16 Copy CRC 0393DD16 Accurately ripped (confidence 3) [64A7C018] Copy OK

Track 8

Filename C:\Documents and Settings\Mark 2\My Documents\Downloads\Little Feat - Waiting for Columbus UDCD 2-786 Disc 2 of 2 (2010) [FLAC]\08 - Feats Don't Fail Me Now.wav

Peak level 98.5 % Extraction speed 2.7 X Track quality 99.9 % Test CRC D6BB5419 Copy CRC D6BB5419 Accurately ripped (confidence 3) [B0CBD623] Copy OK

All tracks accurately ripped

No errors occurred

End of status report
REM GENRE RockREM DATE 2010REM DISCID 7309BE08REM COMMENT "ExactAudioCopy v1.0b1"FILE "01 - Dixie Chicken.wav" WAVE TRACK 01 AUDIO INDEX 01 00:00:00FILE "02 - Tripe Face Boogie.wav" WAVE TRACK 02 AUDIO INDEX 01 00:00:00FILE "03 - Rocket in my Pocket.wav" WAVE TRACK 03 AUDIO INDEX 01 00:00:00FILE "04 - Willinґ.wav" WAVE TRACK 04 AUDIO INDEX 01 00:00:00FILE "05 - Don't Bogart That Joint.wav" WAVE TRACK 05 AUDIO INDEX 01 00:00:00FILE "06 - A Apolitical Blues.wav" WAVE TRACK 06 AUDIO INDEX 01 00:00:00FILE "07 - Sailin' Shoes.wav" WAVE TRACK 07 AUDIO INDEX 01 00:00:00FILE "08 - Feats Don't Fail Me Now.wav" WAVE TRACK 08 AUDIO INDEX 01 00:00:00
-----------------------

DON'T MODIFY THIS FILE

-----------------------

PERFORMER: auCDtect Task Manager, ver. 1.5.1RC4 build 1.5.1.5Copyright (c) 2008-2010 y-soft. All rights reservedhttp://y-soft.org

ANALYZER: auCDtect: CD records authenticity detector, version 0.8.2Copyright (c) 2004 Oleg Berngardt. All rights reserved.Copyright (c) 2004 Alexander Djourik. All rights reserved.

FILE: 08 - Feats Don't Fail Me Now.flac Size: 39778353 Hash: A459538898D40CC767E45CA4AA6A7049 Accuracy: -m8 Conclusion: CDDA 100% Signature: 42CADA5D23C292020A0A10335F35BE751384DA05FILE: 07 - Sailin' Shoes.flac Size: 40678725 Hash: 7B6078E89461591225037A816568BD7D Accuracy: -m8 Conclusion: CDDA 100% Signature: AE62FB694AB6AC4A15121DBEAB7EBE7BEE040702FILE: 06 - A Apolitical Blues.flac Size: 25328601 Hash: 3631553043E7B2E09B70498FC503E82C Accuracy: -m8 Conclusion: CDDA 100% Signature: F878EFEAB37A3022CEBEB7D71B906F1F306F9218FILE: 05 - Don't Bogart That Joint.flac Size: 6770646 Hash: ED51FADFEB06343DB789F39CA73FB169 Accuracy: -m8 Conclusion: CDDA 100% Signature: E8276B78E6F1667230FABFEBCC9BE8FC0A61D57CFILE: 04 - Willin´.flac Size: 31635880 Hash: DF29EC8D2F590DDF93FBB1C4C46A8323 Accuracy: -m8 Conclusion: CDDA 100% Signature: E9A6BA5BD8E054AF2F5EA1763EEC4EC30D0137C1FILE: 03 - Rocket in my Pocket.flac Size: 25956217 Hash: D94B82982E0977550D5F2514D8B07706 Accuracy: -m8 Conclusion: CDDA 100% Signature: 23DBDC58902AC28D5EFB45F83B75F769C37FFC37FILE: 02 - Tripe Face Boogie.flac Size: 50969667 Hash: 0BCE5988F6BEB80DFA2855726C6D1151 Accuracy: -m8 Conclusion: CDDA 99% Signature: 89F2F091D0A8075A83EACE4DA4224FDC83E8F013FILE: 01 - Dixie Chicken.flac Size: 60162403 Hash: 70E06C56BFC2AC8A656596CC1CA3B078 Accuracy: -m8 Conclusion: CDDA 58% Signature: 924D0281649EB324507E2B6D80A592D0D27F1363
Доп. информация:

Трекер:  [ 23-Янв-2013 17:19 ]

  

Скачать .torrent

Размер .torrent файла 13 KB


Размер: 537 MB
Хэш (hash) релиза: c828004b0d50948dbc9ad59625279a0bd4dd9b4c

Еще никто не оставлял запись к записи скачать торрент Little Feat - Waiting for Columbus 2CD - 1978 . Будь первым!

!Обратная связь