Скачать через торрент музыку Robert R. Rodrigo - Half Finger On The Moon - 2008, бесплатно без регистрации torrent

Если у вас наблюдаются проблемы со скриншотами, переходом по ссылками, скачиванием торрентов - проблемы в блокировщике рекламы AdBlock. #хорошегоДня!


Статистика раздачи
Размер:  284 MB   |    Зарегистрирован:  4 года 9 месяцев   |    .torrent скачан:  25 раз   |   
Раздают:  1  
   
Загрузка...
 
Автор Сообщение

Galfimbul

avatar Galfimbul


Robert R. Rodrigo / Half Finger On The Moon

Жанр: Instrumental Guitar Rock / Shred
Страна-производитель диска: Spain
Год издания: 2008
Издатель (лейбл): DURADISC
Номер по каталогу: RRR01
Страна: Spain
Аудиокодек: FLAC (*.flac)
Тип рипа: image+.cue
Битрейт аудио: lossless
Продолжительность: 41:29:56
Источник (релизер): Оригинальный CD
Наличие сканов в содержимом раздачи: да
Треклист:
01. Me Vs Me [0:02:46.57]
02. Fury Of The Universe [0:04:13.44]
03. Race In Flames [0:03:57.40]
04. Brief Love [0:04:27.40]
05. The Shadow Of Told's Club [0:05:06.65]
06. Three Minutes In San Francisco [0:03:02.41]
07. Tears [0:05:20.15]
08. Christina [0:02:28.42]
09. Half Finger On The Moon [0:04:32.31]
10. Chain Reaction [0:04:16.29]
11. To Be Continued.... [0:01:17.27]
Exact Audio Copy V1.0 beta 3 from 29. August 2011

Отчёт EAC об извлечении, выполненном 23. января 2013, 11:57

Robert R. Rodrigo / Half Finger On The Moon

Дисковод: SlimtypeDVD A DS8A5SH Adapter: 0 ID: 1

Режим чтения : ДостоверностьИспользование точного потока : ДаОтключение кэша аудио : ДаИспользование указателей C2 : Нет

Коррекция смещения при чтении : 6Способность читать области Lead-in и Lead-out : НетЗаполнение пропущенных сэмплов тишиной : ДаУдаление блоков с тишиной в начале и конце : НетПри вычислениях CRC использовались нулевые сэмплы : ДаИнтерфейс : Встроенный Win32-интерфейс для Win NT/2000

Выходной формат : Внутренние WAV-операцииФормат сэмплов : 44.100 Гц; 16 бит; стерео

TOC извлечённого CD

Трек | Старт | Длительность | Начальный сектор | Конечный сектор --------------------------------------------------------------------- 1 | 0:00.00 | 2:46.57 | 0 | 12506 2 | 2:46.57 | 4:13.44 | 12507 | 31525 3 | 7:00.26 | 3:57.40 | 31526 | 49340 4 | 10:57.66 | 4:27.40 | 49341 | 69405 5 | 15:25.31 | 5:06.65 | 69406 | 92420 6 | 20:32.21 | 3:02.41 | 92421 | 106111 7 | 23:34.62 | 5:20.15 | 106112 | 130126 8 | 28:55.02 | 2:28.42 | 130127 | 141268 9 | 31:23.44 | 4:32.31 | 141269 | 161699 10 | 35:56.00 | 4:16.29 | 161700 | 180928 11 | 40:12.29 | 1:17.27 | 180929 | 186730

Характеристики диапазона извлечения и сообщения об ошибках

Выбранный диапазон

Имя файла D:\Robert R. Rodrigo - Half Finger On The Moon - 2008\Robert R. Rodrigo - Half Finger On The Moon.wav

Пиковый уровень 100.0 % Скорость извлечения 4.4 X Качество диапазона 100.0 % CRC теста 1D3F87B4 CRC копии 1D3F87B4 Копирование... OK

Ошибок не произошло

AccurateRip: сводка

Трек 1 отсутствует в базе данныхТрек 2 отсутствует в базе данныхТрек 3 отсутствует в базе данныхТрек 4 отсутствует в базе данныхТрек 5 отсутствует в базе данныхТрек 6 отсутствует в базе данныхТрек 7 отсутствует в базе данныхТрек 8 отсутствует в базе данныхТрек 9 отсутствует в базе данныхТрек 10 отсутствует в базе данныхТрек 11 отсутствует в базе данных

Ни одного трека нет в базе AccurateRip

Конец отчёта

==== Контрольная сумма отчёта FE4E88EBDA93D129435F7596A2065CAF348BA8077A426161C49A77DF68781C45 ====
REM GENRE "Instrumental Rock"REM DATE 2008REM DISCID 9809B90BREM COMMENT "ExactAudioCopy v1.0b3"PERFORMER "Robert R. Rodrigo"TITLE "Half Finger On The Moon "FILE "Robert R. Rodrigo - Half Finger On The Moon.flac" WAVE TRACK 01 AUDIO TITLE "Me Vs Me" PERFORMER "01" FLAGS DCP INDEX 01 00:00:00 TRACK 02 AUDIO TITLE "Fury Of The Universe" PERFORMER "02" FLAGS DCP INDEX 00 02:44:57 INDEX 01 02:46:57 TRACK 03 AUDIO TITLE "Race In Flames" PERFORMER "03" FLAGS DCP INDEX 00 06:58:26 INDEX 01 07:00:26 TRACK 04 AUDIO TITLE "Brief Love" PERFORMER "04" FLAGS DCP INDEX 00 10:55:67 INDEX 01 10:57:66 TRACK 05 AUDIO TITLE "The Shadow Of Told's Club" PERFORMER "05" FLAGS DCP INDEX 00 15:23:31 INDEX 01 15:25:31 TRACK 06 AUDIO TITLE "Three Minutes In San Francisco" PERFORMER "06" FLAGS DCP INDEX 00 20:30:21 INDEX 01 20:32:21 TRACK 07 AUDIO TITLE "Tears" PERFORMER "07" FLAGS DCP INDEX 00 23:32:62 INDEX 01 23:34:62 TRACK 08 AUDIO TITLE "Christina" PERFORMER "08" FLAGS DCP INDEX 00 28:53:02 INDEX 01 28:55:02 TRACK 09 AUDIO TITLE "Half Finger On The Moon" PERFORMER "09" FLAGS DCP INDEX 00 31:21:44 INDEX 01 31:23:44 TRACK 10 AUDIO TITLE "Chain Reaction" PERFORMER "10" FLAGS DCP INDEX 00 35:54:00 INDEX 01 35:56:00 TRACK 11 AUDIO TITLE "To Be Continued...." PERFORMER "11" FLAGS DCP INDEX 00 40:10:29 INDEX 01 40:12:29
-----------------------

DON'T MODIFY THIS FILE

-----------------------

PERFORMER: auCDtect Task Manager, ver. 1.5.1RC4 build 1.5.1.5Copyright (c) 2008-2010 y-soft. All rights reservedhttp://y-soft.org

ANALYZER: auCDtect: CD records authenticity detector, version 0.8.2Copyright (c) 2004 Oleg Berngardt. All rights reserved.Copyright (c) 2004 Alexander Djourik. All rights reserved.

FILE: Robert R. Rodrigo - Half Finger On The Moon.flac Size: 289041970 Hash: 7DD721439CED4EA069F6334C056F2A8A Accuracy: -m0 Conclusion: CDDA 100% Signature: F0791CA351C07E6AF6872AB2C689B64EACE8A36E
Phenomenal instrumental guitar disc by incredibly gifted axemaster Robert R. Rodrigo from Spain. Featuring 11 tracks of mind-blowing riffage/playing and remarkable bluesy lead solo's complete with super-human technique and feel. Strong compositions, outstanding \"tones\" and brilliant dynamic guitar playing rule in the world of Robert R. Rodrigo. Definitely, one of the best obscure guitarists we have heard in years, Rodrigo plays with vast amounts of style, class and authority...the sign of a true Guitar Hero. \"Half Finger On The Moon\" is not your typical, boring instrumental guitar \"shred\" disc. It is, however, a first-class, intelligent, superb, awe-inspiring 6 string \"musical journey\" from a gifted, obscure, world-class axemaster who has a lot to say on the instrument. Highly Recommended to fans of Richie Kotzen, Paul Gilbert, Greg Howe, Shawn Lane, Michael Lee Firkins and other outstanding shred-masters of the Guitar.


Трекер:  [ 23-Янв-2013 17:19 ]

  

Скачать .torrent

Размер .torrent файла 12 KB


Размер: 284 MB
Хэш (hash) релиза: 4e12b5c535b14e4c55cb7cf9ba8eeaad863d5c8e

Еще никто не оставлял запись к записи скачать торрент Robert R. Rodrigo - Half Finger On The Moon - 2008, . Будь первым!

!Обратная связь