Скачать через торрент [iPad] Teмнaя cтopoнa бесплатно русская версия torrent активатор

Если у вас наблюдаются проблемы со скриншотами, переходом по ссылками, скачиванием торрентов - проблемы в блокировщике рекламы AdBlock. #хорошегоДня!


Статистика раздачи
Размер:  1.66 GB   |    Зарегистрирован:  4 года 8 месяцев   |    .torrent скачан:  101 раз   |   
Раздают:  1  
   
Загрузка...
 
Автор Сообщение

Galfimbul

avatar Galfimbul


Teмнaя cтopoнa (Бyнкep) / Lа саrа осultа (Вunkеr)

«Тебе никогда не откроют дверь»

Год выпуска: 2011
Страна: Испания, Колумбия
Студия: Avalon, Cactus Flower, Dynamo, Fox International Productions (FIP)
Жанр: Триллер
Продолжительность: 01:36:31
Рейтинг MPAA: R
Перевод: Профессиональный (многоголосый закадровый)
Оригинальная аудиодорожка: есть
Cубтитры: русские и английские

Режиссёр: Aндpec Бaиз/ Аndrés Ваiz
Сценарий: Хатем Храиче, Андрес Баиз, Артуро Инфанте
Продюссер: Андрес Калдерон, Андрес Калдерон, Кристиан Конти

В ролях: Клара Лаго, Ким Гутьеррес, Мартина Гарсия, Хуан Альфонсо Баптиста, Марсела Бенхумеа, Марсела Мар Умберто Дорадо, Хосе Луис Гарсиа, Марсела Гардеазабаль, Мозад, Мария Соледад Родригез

Описание:
Официантка Фабиана знакомится с одним из случайных посетителей, переживающим сложный период в жизни. Между ними вспыхивает страсть. Для девушки все кажется идеальным: ее любимый работает дирижером оркестра филармонии в Боготе и владеет огромным особняком. Однако вскоре появляются непредвиденные сложности. Полиция расследует таинственное исчезновения бывшей невесты и подруги дирижера, а сама девушка начинает чувствовать, что в доме происходит нечто странное.

Доп. информация:


Качество исходника: BDRemux - Темная сторона (Бункер) / La cara oculta (The Hidden Face) / 2011 / ПМ, СТ / Blu-Ray Remux (1080p)
Качество: BDRip
Разрешение: 1024х432
Формат: MP4
Видео: H.264, 2,40:1 , 2200kbit/s; 23.976fps

Аудио 1: Russian/MVO, AAC, 126kbit/s; 2ch; 48KHz
Аудио 2: Spanish/Original, AAC, 126kbit/s; 2ch; 48KHz
XID: Apple:vendor_id:2011-588786contentID: 502296032Screenwriters: Хатем Храиче, Андрес Баиз, Артуро ИнфантеProducers: Андрес Калдерон, Андрес Калдерон, Кристиан КонтиDirector: Андрес БаизCast: Клара Лаго, Ким Гутьеррес, Мартина Гарсия, Хуан Альфонсо Баптиста, Марсела Бенхумеа, Марсела Мар Умберто Дорадо, Хосе Луис Гарсиа, Марсела Гардеазабаль, Мозад, Мария Соледад РодригезRating: 5Long Description: Официантка Фабиана знакомится с одним из случайных посетителей, переживающим сложный период в жизни. Между ними вспыхивает страсть. Для девушки все кажется идеальным: ее любимый работает дирижером оркестра филармонии в Боготе и владеет огромным особняком. Однако вскоре появляются непредвиденные сложности. Полиция расследует таинственное исчезновения бывшей невесты и подруги дирижера, а сама девушка начинает чувствовать, что в доме происходит нечто странное.Description: Официантка Фабиана знакомится с одним из случайных посетителей, переживающим сложный период в жизни. Между ними вспыхивает страсть.Release Date: 2011-09-16T16:00:00ZGenre: ThrillerArtist: Андрес БаизName: Темная сторона (Бункер)
GeneralComplete name : /Users/imac/HandBrake/Bunker.2011.x264.BDRip.1024x.m4vFormat : MPEG-4Codec ID : M4VFile size : 1.66 GiBDuration : 1h 36mnOverall bit rate mode : VariableOverall bit rate : 2 459 KbpsMovie name : Темная сторона (Бункер)Performer : Андрес БаизGenre : ThrillerRecorded date : UTC 2011-09-16 16:00:00Encoded date : UTC 2013-01-23 10:50:32Tagged date : UTC 2013-01-23 10:51:13Cover : Yesdesc : Официантка Фабиана знакомится с одним из случайных посетителей, переживающим сложный период в жизни. Между ними вспыхивает страсть.ldes : Официантка Фабиана знакомится с одним из случайных посетителей, переживающим сложный период в жизни. Между ними вспыхивает страсть. Для девушки все кажется идеальным: ее любимый работает дирижером оркестра филармонии в Боготе и владеет огромным особняком. Однако вскоре появляются непредвиденные сложности. Полиция расследует таинственное исчезновения бывшей невесты и подруги дирижера, а сама девушка начинает чувствовать, что в доме происходит нечто странное.stik : 9rtng : 0cnID : 502296032xid : Apple:vendor_id:2011-588786iTunEXTC : mpaa|R|400|iTunMOVI : <?xml version="1.0" encoding="UTF-8"?> / <!DOCTYPE plist PUBLIC "-//Apple//DTD PLIST 1.0//EN" "http://www.apple.com/DTDs/PropertyList-1.0.dtd"> / <plist version="1.0"> / <dict> / <key>cast</key> / <array> / <dict> / <key>name</key> / <string> Клара Лаго</string> / </dict> / <dict> / <key>name</key> / <string>Ким Гутьеррес</string> / </dict> / <dict> / <key>name</key> / <string>Мартина Гарсия</string> / </dict> / <dict> / <key>name</key> / <string>Хуан Альфонсо Баптиста</string> / </dict> / <dict> / <key>name</key> / <string>Марсела Бенхумеа</string> / </dict> / <dict> / <key>name</key> / <string>Марсела Мар Умберто Дорадо</string> / </dict> / <dict> / <key>name</key> / <string>Хосе Луис Гарсиа</string> / </dict> / <dict> / <key>name</key> / <string>Марсела Гардеазабаль</string> / </dict> / <dict> / <key>name</key> / <string>Мозад</string> / </dict> / <dict> / <key>name</key> / <string>Мария Соледад Родригез</string> / </dict> / </array> / <key>directors</key> / <array> / <dict> / <key>name</key> / <string>Андрес Баиз</string> / </dict> / </array> / <key>producers</key> / <array> / <dict> / <key>name</key> / <string>Андрес Калдерон</string> / </dict> / <dict> / <key>name</key> / <string>Андрес Калдерон</string> / </dict> / <dict> / <key>name</key> / <string>Кристиан Конти</string> / </dict> / </array> / <key>screenwriters</key> / <array> / <dict> / <key>name</key> / <string>Хатем Храиче</string> / </dict> / <dict> / <key>name</key> / <string>Андрес Баиз</string> / </dict> / <dict> / <key>name</key> / <string>Артуро Инфанте</string> / </dict> / </array> / </dict> / </plist>

VideoID : 1Format : AVCFormat/Info : Advanced Video CodecFormat profile : <a href="mailto:High@L3.1Format" class="postLink">High@L3.1Format</a> settings, CABAC : YesFormat settings, ReFrames : 9 framesCodec ID : avc1Codec ID/Info : Advanced Video CodingDuration : 1h 36mnBit rate mode : VariableBit rate : 2 200 KbpsWidth : 1 024 pixelsHeight : 432 pixelsDisplay aspect ratio : 2.40:1Frame rate mode : VariableFrame rate : 23.976 fpsMinimum frame rate : 23.810 fpsMaximum frame rate : 24.318 fpsColor space : YUVChroma subsampling : 4:2:0Bit depth : 8 bitsScan type : ProgressiveBits/(Pixel*Frame) : 0.207Stream size : 1.48 GiB (89%)Writing library : x264 core 120Encoding settings : cabac=1 / ref=9 / deblock=1:0:0 / analyse=0x3:0x113 / me=umh / subme=9 / psy=1 / psy_rd=1.00:0.00 / mixed_ref=1 / me_range=32 / chroma_me=1 / trellis=1 / 8x8dct=1 / cqm=0 / deadzone=21,11 / fast_pskip=1 / chroma_qp_offset=-2 / threads=12 / sliced_threads=0 / nr=0 / decimate=1 / interlaced=0 / bluray_compat=0 / constrained_intra=0 / bframes=6 / b_pyramid=2 / b_adapt=2 / b_bias=0 / direct=1 / weightb=1 / open_gop=0 / weightp=2 / keyint=240 / keyint_min=24 / scenecut=40 / intra_refresh=0 / rc_lookahead=40 / rc=2pass / mbtree=1 / bitrate=2200 / ratetol=1.0 / qcomp=0.60 / qpmin=3 / qpmax=69 / qpstep=4 / cplxblur=20.0 / qblur=0.5 / ip_ratio=1.40 / aq=1:1.00Language : SpanishEncoded date : UTC 2013-01-23 10:50:33Tagged date : UTC 2013-01-23 10:51:00Color primaries : BT.709-5, BT.1361, IEC 61966-2-4, SMPTE RP177Transfer characteristics : BT.709-5, BT.1361Matrix coefficients : BT.709-5, BT.1361, IEC 61966-2-4 709, SMPTE RP177

Audio #1ID : 2Format : AACFormat/Info : Advanced Audio CodecFormat profile : LCCodec ID : 40Duration : 1h 36mnBit rate mode : VariableBit rate : 126 KbpsMaximum bit rate : 203 KbpsChannel(s) : 2 channelsChannel positions : Front: L RSampling rate : 48.0 KHzCompression mode : LossyStream size : 87.1 MiB (5%)Language : RussianEncoded date : UTC 2013-01-23 10:50:33Tagged date : UTC 2013-01-23 10:51:07

Audio #2ID : 3Format : AACFormat/Info : Advanced Audio CodecFormat profile : LCCodec ID : 40Duration : 1h 36mnBit rate mode : VariableBit rate : 126 KbpsMaximum bit rate : 194 KbpsChannel(s) : 2 channelsChannel positions : Front: L RSampling rate : 48.0 KHzCompression mode : LossyStream size : 86.8 MiB (5%)Language : SpanishEncoded date : UTC 2013-01-23 10:50:33Tagged date : UTC 2013-01-23 10:51:13

Text #1ID : 4Format : Timed textMuxing mode : sbtlCodec ID : tx3gDuration : 1h 29mnBit rate mode : VariableBit rate : 56 bpsStream size : 36.3 KiB (0%)Language : RussianEncoded date : UTC 2013-01-23 10:50:33Tagged date : UTC 2013-01-23 10:51:13

Text #2ID : 5Format : Timed textMuxing mode : sbtlCodec ID : tx3gDuration : 1h 36mnBit rate mode : VariableBit rate : 33 bpsStream size : 23.1 KiB (0%)Language : EnglishEncoded date : UTC 2013-01-23 10:50:33Tagged date : UTC 2013-01-23 10:51:13
x264 [info]: frame I:1228 Avg QP:13.92 size: 62864 PSNR Mean Y:48.95 U:52.88 V:54.47 Avg:49.93 Global:49.70x264 [info]: frame P:28733 Avg QP:16.48 size: 23282 PSNR Mean Y:46.44 U:50.91 V:52.80 Avg:47.50 Global:47.16x264 [info]: frame B:108885 Avg QP:18.33 size: 7773 PSNR Mean Y:45.25 U:50.47 V:52.30 Avg:46.42 Global:46.07x264 [info]: consecutive B-frames: 1.5% 1.5% 4.5% 25.4% 14.0% 46.1% 7.0%x264 [info]: mb I I16..4: 9.2% 73.8% 17.1%x264 [info]: mb P I16..4: 1.8% 9.9% 1.9% P16..4: 36.7% 28.6% 17.0% 0.0% 0.0% skip: 4.1%x264 [info]: mb B I16..4: 0.2% 1.2% 0.1% B16..8: 44.9% 13.3% 3.5% direct: 5.1% skip:31.6% L0:45.6% L1:47.1% BI: 7.3%x264 [info]: 8x8 transform intra:74.5% inter:67.0%x264 [info]: coded y,uvDC,uvAC intra: 86.3% 74.7% 51.5% inter: 31.1% 24.2% 2.9%x264 [info]: i16 v,h,dc,p: 37% 13% 13% 37%x264 [info]: i8 v,h,dc,ddl,ddr,vr,hd,vl,hu: 9% 6% 6% 11% 15% 15% 13% 13% 12%x264 [info]: i4 v,h,dc,ddl,ddr,vr,hd,vl,hu: 9% 6% 4% 10% 16% 16% 14% 13% 13%x264 [info]: i8c dc,h,v,p: 48% 19% 19% 14%x264 [info]: Weighted P-Frames: Y:2.8% UV:1.0%x264 [info]: ref P L0: 46.3% 9.0% 18.0% 7.6% 6.0% 4.5% 3.9% 2.3% 2.1% 0.2% 0.0%x264 [info]: ref B L0: 69.3% 13.3% 7.1% 3.7% 2.7% 2.2% 1.2% 0.4%x264 [info]: ref B L1: 91.1% 8.9%x264 [info]: SSIM Mean Y:0.9803046 (17.056db)x264 [info]: PSNR Mean Y:45.530 U:50.586 V:52.422 Avg:46.674 Global:46.293 kb/s:2200.02


Трекер:  [ 23-Янв-2013 17:18 ]

  

Скачать .torrent

Размер .torrent файла 33 KB


Размер: 1.66 GB
Хэш (hash) релиза: e640768787cc52e2686835728cf9a1acf0641e29

Еще никто не оставлял запись к записи скачать торрент [iPad] Teмнaя cтopoнa . Будь первым!

!Обратная связь