Скачать через торрент музыку Manfred Manns Plain Music - Plain Music - 1991 - 1998 бесплатно без регистрации torrent

Если у вас наблюдаются проблемы со скриншотами, переходом по ссылками, скачиванием торрентов - проблемы в блокировщике рекламы AdBlock. #хорошегоДня!


Статистика раздачи
Размер:  195 MB   |    Зарегистрирован:  4 года 6 месяцев   |    .torrent скачан:  36 раз   |   
Раздают:  1  
   
Загрузка...
 
Автор Сообщение

Galfimbul

avatar Galfimbul


Manfred Mann's Plain Music / Plain Music - 1991

Жанр: Progressive & Art-Rock
Страна-производитель диска: Germany
Год издания: 1998 <img class="smile" src="/images/smiles/icon_question.gif" alt=" (?)" title="Question" align="absmiddle" border="0" />
Издатель (лейбл): ROMA REC.
Номер по каталогу: ROMA 809102
Страна: UK
Аудиокодек: WavPack (*.wv)
Тип рипа: image+.cue
Битрейт аудио: lossless
Продолжительность: 0:34:42
Источник (релизер): Собственный релиз
Наличие сканов в содержимом раздачи: нет
Треклист:
1. Kiowa
2. Medicine Song
3. Wounded Knee
4. Laguna
5. Sikelele
6. Hunting Bow (Reprise)
7. Instumedicine Song
8. Sikelele II
9. Hunting Bow (Major)
Exact Audio Copy V0.99 prebeta 5 from 4. May 2009

EAC extraction logfile from 23. January 2013, 20:54

Manfred Mann's Plain Music / Plains Music

Used drive : Optiarc DVD RW AD-7200S Adapter: 2 ID: 0

Read mode : SecureUtilize accurate stream : YesDefeat audio cache : YesMake use of C2 pointers : No

Read offset correction : 48Overread into Lead-In and Lead-Out : NoFill up missing offset samples with silence : YesDelete leading and trailing silent blocks : NoNull samples used in CRC calculations : YesUsed interface : Native Win32 interface for Win NT & 2000

Used output format : User Defined EncoderSelected bitrate : 896 kBit/sQuality : HighAdd ID3 tag : NoCommand line compressor : C:\Program Files (x86)\Exact Audio Copy\wavpack.exeAdditional command line options : -hlm %s

TOC of the extracted CD

Track | Start | Length | Start sector | End sector --------------------------------------------------------- 1 | 0:00.00 | 3:13.67 | 0 | 14541 2 | 3:13.67 | 4:14.23 | 14542 | 33614 3 | 7:28.15 | 4:48.02 | 33615 | 55216 4 | 12:16.17 | 3:40.58 | 55217 | 71774 5 | 15:57.00 | 2:40.05 | 71775 | 83779 6 | 18:37.05 | 4:02.45 | 83780 | 101974 7 | 22:39.50 | 4:55.50 | 101975 | 124149 8 | 27:35.25 | 4:04.30 | 124150 | 142479 9 | 31:39.55 | 4:02.02 | 142480 | 160631

Range status and errors

Selected range

Filename C:\Users\Bishop\Desktop\Manfred Mann's Plain Music\Manfred Mann's Plain Music - Plains Music.wav

Peak level 99.8 % Range quality 100.0 % Test CRC D5AE6CB8 Copy CRC D5AE6CB8 Copy OK

No errors occurred

AccurateRip summary

Track 1 cannot be verified as accurate (confidence 3) [D282394B], AccurateRip returned [7EFC39C2]Track 2 cannot be verified as accurate (confidence 3) [A06D1DD5], AccurateRip returned [B990DC16]Track 3 cannot be verified as accurate (confidence 3) [4C2DB8C0], AccurateRip returned [AE19F10B]Track 4 cannot be verified as accurate (confidence 3) [C89B249E], AccurateRip returned [FF06B4A1]Track 5 cannot be verified as accurate (confidence 3) [1307D92E], AccurateRip returned [57C85A24]Track 6 cannot be verified as accurate (confidence 3) [5D4AB986], AccurateRip returned [FD0914F3]Track 7 cannot be verified as accurate (confidence 3) [ADD4CF12], AccurateRip returned [452613EB]Track 8 cannot be verified as accurate (confidence 3) [5914986F], AccurateRip returned [E5C582D0]Track 9 cannot be verified as accurate (confidence 3) [360C5298], AccurateRip returned [2AA96554]

No tracks could be verified as accurateYou may have a different pressing from the one(s) in the database

End of status report
REM GENRE Native AmericanREM DATE 1991REM DISCID 78085D09REM COMMENT ExactAudioCopy v0.99pb5PERFORMER "Manfred Mann's Plain Music"TITLE "Plains Music"FILE "Manfred Mann's Plain Music - Plains Music.wv" WAVE TRACK 01 AUDIO TITLE "Kiowa" INDEX 01 00:00:00 TRACK 02 AUDIO TITLE "Medicine Song" INDEX 00 03:12:60 INDEX 01 03:13:67 TRACK 03 AUDIO TITLE "Wounded Knee" INDEX 00 07:27:10 INDEX 01 07:28:15 TRACK 04 AUDIO TITLE "Sikelele" INDEX 00 12:16:00 INDEX 01 12:16:17 TRACK 05 AUDIO TITLE "Hunting Bow" INDEX 00 15:56:36 INDEX 01 15:57:00 TRACK 06 AUDIO TITLE "Salmon Fishing" INDEX 00 18:35:25 INDEX 01 18:37:05 TRACK 07 AUDIO TITLE "Laguna" INDEX 00 22:37:17 INDEX 01 22:39:50 TRACK 08 AUDIO TITLE "Intrumedicine Song" INDEX 00 27:33:35 INDEX 01 27:35:25 TRACK 09 AUDIO TITLE "Sikelele II" INDEX 00 31:38:02 INDEX 01 31:39:55


Трекер:  [ 23-Янв-2013 17:15 ]

  

Скачать .torrent

Размер .torrent файла 16 KB


Размер: 195 MB
Хэш (hash) релиза: 37c89ff4a1910b1640830dad614c84f92678d3b9

Торренты, похожие на Manfred Manns Plain Music - Plain Music - 1991 - 1998 скачать торрент

Форум Название Автор Размер S L Добавлен
Rосk | Mеtаl | Аltеrnаtivе, Рunk, Indереndеnt (losslеss) ·· (Progressive & Art-Rock) Manfred Mann's - Plains Music - 1991, (Remastered, 1998), APE (image+.cue+log+covers), lossless Galfimbul 248805760237 MB 0 0 1297858867

15:21

16-Фев-11

Еще никто не оставлял запись к записи скачать торрент Manfred Manns Plain Music - Plain Music - 1991 - 1998 . Будь первым!

!Обратная связь