Скачать через торрент музыку Sting - Mercury Falling - 1996, WavPack бесплатно без регистрации torrent

Если у вас наблюдаются проблемы со скриншотами, переходом по ссылками, скачиванием торрентов - проблемы в блокировщике рекламы AdBlock. #хорошегоДня!


Статистика раздачи
Размер:  354 MB   |    Зарегистрирован:  4 года 8 месяцев   |    .torrent скачан:  40 раз   |   
Раздают:  1  
   
Загрузка...
 
Автор Сообщение

Galfimbul

avatar Galfimbul


Sting / Mercury Falling

Жанр: Pop-Rock & Soft Rock
Страна-производитель диска: Japan
Год издания: 1996
Издатель (лейбл): Polydor K.K.
Номер по каталогу: POCM-51165
Страна: UK
Аудиокодек: WavPack (*.wv)
Тип рипа: image+.cue
Битрейт аудио: lossless
Продолжительность: 0:52:24
Источник (релизер): Собственный релиз
Наличие сканов в содержимом раздачи: да
Треклист:
01 · The Hounds Of Winter
02 · I Hung My Head
03 · Let Your Soul Be Your Pilot
04 · I Was Brought To My Senses
05 · You Still Touch Me
06 · I'm So Happy I Can't Stop Crying
07 · All Four Seasons
08 · Twenty Five To Midnight
09 · La Belle Dame Sans Regrets
10 · Valparaiso
11 · Lithium Sunset
Exact Audio Copy V0.99 prebeta 5 from 4. May 2009

EAC extraction logfile from 21. January 2013, 12:13

Sting / Mercury Falling.(Polydor K.K.Japan)

Used drive : Optiarc DVD RW AD-7200S Adapter: 2 ID: 0

Read mode : SecureUtilize accurate stream : YesDefeat audio cache : YesMake use of C2 pointers : No

Read offset correction : 48Overread into Lead-In and Lead-Out : NoFill up missing offset samples with silence : YesDelete leading and trailing silent blocks : NoNull samples used in CRC calculations : YesUsed interface : Native Win32 interface for Win NT & 2000

Used output format : User Defined EncoderSelected bitrate : 896 kBit/sQuality : HighAdd ID3 tag : NoCommand line compressor : C:\Program Files (x86)\Exact Audio Copy\wavpack.exeAdditional command line options : -hlm %s

TOC of the extracted CD

Track | Start | Length | Start sector | End sector --------------------------------------------------------- 1 | 0:00.00 | 5:26.65 | 0 | 24514 2 | 5:26.65 | 4:40.60 | 24515 | 45574 3 | 10:07.50 | 6:43.37 | 45575 | 75836 4 | 16:51.12 | 5:50.10 | 75837 | 102096 5 | 22:41.22 | 3:46.53 | 102097 | 119099 6 | 26:28.00 | 3:57.20 | 119100 | 136894 7 | 30:25.20 | 4:28.30 | 136895 | 157024 8 | 34:53.50 | 4:08.07 | 157025 | 175631 9 | 39:01.57 | 5:16.53 | 175632 | 199384 10 | 44:18.35 | 5:27.45 | 199385 | 223954 11 | 49:46.05 | 2:37.60 | 223955 | 235789

Range status and errors

Selected range

Filename C:\Users\Bishop\Desktop\Sting - Mercury Falling.(Polydor K.K.Japan)\Sting - Mercury Falling.(Polydor K.K.Japan).wav

Peak level 99.4 % Range quality 100.0 % Test CRC E9BA4870 Copy CRC E9BA4870 Copy OK

No errors occurred

AccurateRip summary

Track 1 accurately ripped (confidence 13) [2FE88F39]Track 2 accurately ripped (confidence 13) [60A02702]Track 3 accurately ripped (confidence 13) [7B0D3B91]Track 4 accurately ripped (confidence 13) [04872F97]Track 5 accurately ripped (confidence 13) [0A501C11]Track 6 accurately ripped (confidence 13) [3F494331]Track 7 accurately ripped (confidence 13) [8B75182E]Track 8 accurately ripped (confidence 13) [7830947F]Track 9 accurately ripped (confidence 13) [3ADB941A]Track 10 accurately ripped (confidence 13) [CFE03A1A]Track 11 accurately ripped (confidence 13) [FB27EEEA]

All tracks accurately ripped

End of status report
REM GENRE RockREM DATE 1996REM DISCID 960C470BREM COMMENT "ExactAudioCopy v0.99pb5"PERFORMER "Sting"TITLE "Mercury Falling.(Polydor K.K.Japan)"FILE "Sting - Mercury Falling.(Polydor K.K.Japan).wv" WAVE TRACK 01 AUDIO TITLE "The Hounds of Winter" PERFORMER "Sting" INDEX 01 00:00:00 TRACK 02 AUDIO TITLE "I Hung My Head" PERFORMER "Sting" INDEX 01 05:26:65 TRACK 03 AUDIO TITLE "Let Your Soul Be Your Pilot" PERFORMER "Sting" INDEX 00 10:07:27 INDEX 01 10:07:50 TRACK 04 AUDIO TITLE "I Was Brought to My Senses" PERFORMER "Sting" INDEX 00 16:49:52 INDEX 01 16:51:12 TRACK 05 AUDIO TITLE "You Still Touch Me" PERFORMER "Sting" INDEX 00 22:39:57 INDEX 01 22:41:22 TRACK 06 AUDIO TITLE "I'm So Happy I Can't Stop Crying" PERFORMER "Sting" INDEX 00 26:27:62 INDEX 01 26:28:00 TRACK 07 AUDIO TITLE "All Four Seasons" PERFORMER "Sting" INDEX 00 30:24:47 INDEX 01 30:25:20 TRACK 08 AUDIO TITLE "Twenty Five to Midnight" PERFORMER "Sting" INDEX 00 34:53:15 INDEX 01 34:53:50 TRACK 09 AUDIO TITLE "La Belle Dame Sans Regrets" PERFORMER "Sting" INDEX 00 39:01:22 INDEX 01 39:01:57 TRACK 10 AUDIO TITLE "Valparaiso" PERFORMER "Sting" INDEX 01 44:18:35 TRACK 11 AUDIO TITLE "Lithium Sunset" PERFORMER "Sting" INDEX 00 49:45:47 INDEX 01 49:46:05


Трекер:  [ 21-Янв-2013 23:17 ]

  

Скачать .torrent

Размер .torrent файла 15 KB


Размер: 354 MB
Хэш (hash) релиза: 4b66a8660b828b903c90086dbe7c448e8b3f701e

Еще никто не оставлял запись к записи скачать торрент Sting - Mercury Falling - 1996, WavPack . Будь первым!

!Обратная связь