Скачать через торрент музыку The Police бесплатно без регистрации torrent

Если у вас наблюдаются проблемы со скриншотами, переходом по ссылками, скачиванием торрентов - проблемы в блокировщике рекламы AdBlock. #хорошегоДня!


Статистика раздачи
Размер:  1.89 GB   |    Зарегистрирован:  4 года 7 месяцев   |    .torrent скачан:  38 раз   |   
Раздают:  1  
   
Загрузка...
 
Автор Сообщение

Galfimbul

avatar Galfimbul


The Police (Sting) / US 1'st press collection



Жанр: New Wave
Страна-производитель диска: USA
Год издания: 1978-1986
Издатель (лейбл): A&M Records, I.R.S.
Страна: England
Аудиокодек: APE (*.ape)
Тип рипа: image+.cue
Битрейт аудио: lossless
Продолжительность: 04:52
Наличие сканов в содержимом раздачи: да
Треклист:
01. Next To You
02. So Lonely
03. Roxanne
04. Hole In My Life
05. Peanuts
06. Can't Stand Losing You
07. Truth Hits Everybody
08. Born In The 50's
09. Be My Girl - Sally
10. Masoko Tanga
Exact Audio Copy V0.99 prebeta 5 from 4. May 2009

Отчёт EAC об извлечении

The Police / Outlandos D'Amour

Дисковод: Optiarc DVD RW AD-7710H Adapter: 0 ID: 1

Режим чтения : ДостоверностьИспользование точного потока : ДаОтключение кэша аудио : ДаИспользование указателей C2 : Нет

Коррекция смещения при чтении : 48Способность читать области Lead-in и Lead-out : НетЗаполнение пропущенных сэмплов тишиной : ДаУдаление блоков с тишиной в начале и конце : НетПри вычислениях CRC использовались нулевые сэмплы : ДаИнтерфейс : Встроенный Win32-интерфейс для Win NT/2000

Выходной формат : Monkey's Audio (без потерь)Выбранный битрейт : Fast Lossless CompressionКачество : ВысокийДобавление ID3-тэга : ДаУтилита сжатия : C:\Program Files (x86)\Monkey's Audio\MAC.exe

TOC извлечённого CD

Трек | Старт | Длительность | Начальный сектор | Конечный сектор --------------------------------------------------------------------- 1 | 0:00.00 | 2:54.55 | 0 | 13104 2 | 2:54.55 | 4:52.30 | 13105 | 35034 3 | 7:47.10 | 3:15.15 | 35035 | 49674 4 | 11:02.25 | 4:54.70 | 49675 | 71794 5 | 15:57.20 | 4:01.62 | 71795 | 89931 6 | 19:59.07 | 3:04.50 | 89932 | 103781 7 | 23:03.57 | 2:55.05 | 103782 | 116911 8 | 25:58.62 | 3:44.18 | 116912 | 133729 9 | 29:43.05 | 3:24.20 | 133730 | 149049 10 | 33:07.25 | 5:42.12 | 149050 | 174711

Характеристики диапазона извлечения и сообщения об ошибках

Выбранный диапазон

Имя файла E:\EAC Rips\The Police . 1978 . Outlandos D'Amour {A&M Records, CD-4753, USA}\The Police - Outlandos D'Amour.wav

Пиковый уровень 100.0 % Качество диапазона 100.0 % CRC копии 7189C5BE Копирование... OK

Ошибок не произошло

AccurateRip: сводка

Трек 1 точное извлечение (доверие 20) [5C0B2C59]Трек 2 точное извлечение (доверие 20) [C9667128]Трек 3 точное извлечение (доверие 20) [08108028]Трек 4 точное извлечение (доверие 20) [F23A723A]Трек 5 точное извлечение (доверие 20) [90884B41]Трек 6 точное извлечение (доверие 20) [68D460B6]Трек 7 точное извлечение (доверие 20) [BCEEF220]Трек 8 точное извлечение (доверие 19) [1E954782]Трек 9 точное извлечение (доверие 20) [A29E665C]Трек 10 точное извлечение (доверие 19) [942063B3]

Все треки извлечены точно

Конец отчёта
Треклист:
01. Message In A Bottle
02. Reggatta De Blanc
03. It's Alright For You
04. Bring On The Night
05. Deathwish
06. Walking On The Moon
07. On Any Other Day
08. The Bed's Too Big Without You
09. Contact
10. Does Everyone Stare
11. No Time This Time
Exact Audio Copy V0.99 prebeta 5 from 4. May 2009

Отчёт EAC об извлечении

The Police / Zenyatta Mondatta

Дисковод: Optiarc DVD RW AD-7710H Adapter: 0 ID: 1

Режим чтения : Достоверность
Использование точного потока : Да
Отключение кэша аудио : Да
Использование указателей C2 : Нет

Коррекция смещения при чтении : 48
Способность читать области Lead-in и Lead-out : Нет
Заполнение пропущенных сэмплов тишиной : Да
Удаление блоков с тишиной в начале и конце : Нет
При вычислениях CRC использовались нулевые сэмплы : Да
Интерфейс : Встроенный Win32-интерфейс для Win NT/2000

Выходной формат : Monkey's Audio (без потерь)
Выбранный битрейт : Fast Lossless Compression
Качество : Высокий
Добавление ID3-тэга : Да
Утилита сжатия : C:\Program Files (x86)\Monkey's Audio\MAC.exe

TOC извлечённого CD

Трек | Старт | Длительность | Начальный сектор | Конечный сектор
---------------------------------------------------------------------
1 | 0:00.00 | 4:02.02 | 0 | 18151
2 | 4:02.02 | 3:22.13 | 18152 | 33314
3 | 7:24.15 | 3:37.42 | 33315 | 49631
4 | 11:01.57 | 2:27.00 | 49632 | 60656
5 | 13:28.57 | 3:53.58 | 60657 | 78189
6 | 17:22.40 | 3:06.20 | 78190 | 92159
7 | 20:28.60 | 4:10.27 | 92160 | 110936
8 | 24:39.12 | 2:55.05 | 110937 | 124066
9 | 27:34.17 | 2:20.03 | 124067 | 134569
10 | 29:54.20 | 5:03.67 | 134570 | 157361
11 | 34:58.12 | 3:22.63 | 157362 | 172574

Характеристики диапазона извлечения и сообщения об ошибках

Выбранный диапазон

Имя файла E:\EAC Rips\The Police . 1980 . Zenyatta Mondatta {A&M Records, CD 3720, USA}\The Police - Zenyatta Mondatta.wav

Пиковый уровень 100.0 %
Качество диапазона 100.0 %
CRC копии F81F753A
Копирование... OK

Ошибок не произошло

AccurateRip: сводка

Трек 1 точное извлечение (доверие 26) [FAFEEF2C]
Трек 2 точное извлечение (доверие 27) [727606D8]
Трек 3 точное извлечение (доверие 27) [D51A3100]
Трек 4 точное извлечение (доверие 27) [C04BB2BD]
Трек 5 точное извлечение (доверие 27) [FEF13E87]
Трек 6 точное извлечение (доверие 27) [3A8158DE]
Трек 7 точное извлечение (доверие 27) [62371BE9]
Трек 8 точное извлечение (доверие 27) [DA8DF5D5]
Трек 9 точное извлечение (доверие 27) [77B6BD97]
Трек 10 точное извлечение (доверие 27) [72EB6481]
Трек 11 точное извлечение (доверие 27) [96CAFB40]

Все треки извлечены точно

Конец отчёта
Треклист:
01. Don't Stand So Close To Me
02. Driven To Tears
03. When The World Is Running Down, You Make The Best Of What's Still Around
04. Canary In A Coalmine
05. Voices Inside My Head
06. Bombs Away
07. De Do Do Do, De Da Da Da
08. Behind My Camel
09. Man In A Suitcase
10. Shadows In The Rain
11. The Other Way Of Stopping
Exact Audio Copy V0.99 prebeta 5 from 4. May 2009

Отчёт EAC об извлечении

The Police / Zenyatta Mondatta

Дисковод: Optiarc DVD RW AD-7710H Adapter: 0 ID: 1

Режим чтения : Достоверность
Использование точного потока : Да
Отключение кэша аудио : Да
Использование указателей C2 : Нет

Коррекция смещения при чтении : 48
Способность читать области Lead-in и Lead-out : Нет
Заполнение пропущенных сэмплов тишиной : Да
Удаление блоков с тишиной в начале и конце : Нет
При вычислениях CRC использовались нулевые сэмплы : Да
Интерфейс : Встроенный Win32-интерфейс для Win NT/2000

Выходной формат : Monkey's Audio (без потерь)
Выбранный битрейт : Fast Lossless Compression
Качество : Высокий
Добавление ID3-тэга : Да
Утилита сжатия : C:\Program Files (x86)\Monkey's Audio\MAC.exe

TOC извлечённого CD

Трек | Старт | Длительность | Начальный сектор | Конечный сектор
---------------------------------------------------------------------
1 | 0:00.00 | 4:02.02 | 0 | 18151
2 | 4:02.02 | 3:22.13 | 18152 | 33314
3 | 7:24.15 | 3:37.42 | 33315 | 49631
4 | 11:01.57 | 2:27.00 | 49632 | 60656
5 | 13:28.57 | 3:53.58 | 60657 | 78189
6 | 17:22.40 | 3:06.20 | 78190 | 92159
7 | 20:28.60 | 4:10.27 | 92160 | 110936
8 | 24:39.12 | 2:55.05 | 110937 | 124066
9 | 27:34.17 | 2:20.03 | 124067 | 134569
10 | 29:54.20 | 5:03.67 | 134570 | 157361
11 | 34:58.12 | 3:22.63 | 157362 | 172574

Характеристики диапазона извлечения и сообщения об ошибках

Выбранный диапазон

Имя файла E:\EAC Rips\The Police . 1980 . Zenyatta Mondatta {A&M Records, CD 3720, USA}\The Police - Zenyatta Mondatta.wav

Пиковый уровень 100.0 %
Качество диапазона 100.0 %
CRC копии F81F753A
Копирование... OK

Ошибок не произошло

AccurateRip: сводка

Трек 1 точное извлечение (доверие 26) [FAFEEF2C]
Трек 2 точное извлечение (доверие 27) [727606D8]
Трек 3 точное извлечение (доверие 27) [D51A3100]
Трек 4 точное извлечение (доверие 27) [C04BB2BD]
Трек 5 точное извлечение (доверие 27) [FEF13E87]
Трек 6 точное извлечение (доверие 27) [3A8158DE]
Трек 7 точное извлечение (доверие 27) [62371BE9]
Трек 8 точное извлечение (доверие 27) [DA8DF5D5]
Трек 9 точное извлечение (доверие 27) [77B6BD97]
Трек 10 точное извлечение (доверие 27) [72EB6481]
Трек 11 точное извлечение (доверие 27) [96CAFB40]

Все треки извлечены точно

Конец отчёта
Треклист:
01. Spirits In The Material World
02. Every Little Thing She Does Is Magic
03. Invisible Sun
04. Hungry For You (J'Aurais Toujours Faim De Toi)
05. Demolition Man
06. Too Much Information
07. Rehumanize Yourself
08. One World (Not Three)
09. Ωmegaman
10. Secret Journey
11. Darkness
Exact Audio Copy V0.99 prebeta 5 from 4. May 2009

Отчёт EAC об извлечении

The Police / Ghost In The Machine

Дисковод: Optiarc DVD RW AD-7710H Adapter: 0 ID: 1

Режим чтения : Достоверность
Использование точного потока : Да
Отключение кэша аудио : Да
Использование указателей C2 : Нет

Коррекция смещения при чтении : 48
Способность читать области Lead-in и Lead-out : Нет
Заполнение пропущенных сэмплов тишиной : Да
Удаление блоков с тишиной в начале и конце : Нет
При вычислениях CRC использовались нулевые сэмплы : Да
Интерфейс : Встроенный Win32-интерфейс для Win NT/2000

Выходной формат : Monkey's Audio (без потерь)
Выбранный битрейт : Fast Lossless Compression
Качество : Высокий
Добавление ID3-тэга : Да
Утилита сжатия : C:\Program Files (x86)\Monkey's Audio\MAC.exe

TOC извлечённого CD

Трек | Старт | Длительность | Начальный сектор | Конечный сектор
---------------------------------------------------------------------
1 | 0:00.00 | 2:59.00 | 0 | 13424
2 | 2:59.00 | 4:21.30 | 13425 | 33029
3 | 7:20.30 | 3:43.37 | 33030 | 49791
4 | 11:03.67 | 2:52.65 | 49792 | 62756
5 | 13:56.57 | 5:55.15 | 62757 | 89396
6 | 19:51.72 | 3:42.55 | 89397 | 106101
7 | 23:34.52 | 3:10.28 | 106102 | 120379
8 | 26:45.05 | 4:46.52 | 120380 | 141881
9 | 31:31.57 | 2:47.70 | 141882 | 154476
10 | 34:19.52 | 3:33.50 | 154477 | 170501
11 | 37:53.27 | 3:12.63 | 170502 | 184964

Характеристики диапазона извлечения и сообщения об ошибках

Выбранный диапазон

Имя файла E:\EAC Rips\The Police . 1981 . Ghost In The Machine {A&M Records, CD-3730, USA}\The Police - Ghost In The Machine.wav

Пиковый уровень 97.7 %
Качество диапазона 100.0 %
CRC копии D90CC7E2
Копирование... OK

Ошибок не произошло

AccurateRip: сводка

Трек 1 точное извлечение (доверие 32) [0E58B528]
Трек 2 точное извлечение (доверие 32) [9A9E4BED]
Трек 3 точное извлечение (доверие 31) [F375998B]
Трек 4 точное извлечение (доверие 31) [D8B8F0BE]
Трек 5 точное извлечение (доверие 31) [DE25A5BE]
Трек 6 точное извлечение (доверие 31) [46F49690]
Трек 7 точное извлечение (доверие 31) [ADFD3F82]
Трек 8 точное извлечение (доверие 31) [F9F0A568]
Трек 9 точное извлечение (доверие 31) [B96B0A5C]
Трек 10 точное извлечение (доверие 31) [005071DF]
Трек 11 точное извлечение (доверие 28) [CD65ABFB]

Все треки извлечены точно

Конец отчёта
Треклист:
01. Synchronicity I
02. Walking In Your Footsteps
03. Oh My God
04. Mother
05. Miss Gradenko
06. Synchronicity II
07. Every Breath You Take
08. King Of Pain
09. Wrapped Around Your Finger
10. Tea In The Sahara
11. Murder By Numbers
Exact Audio Copy V0.99 prebeta 5 from 4. May 2009

Отчёт EAC об извлечении

The Police / Synchronicity

Дисковод: Optiarc DVD RW AD-7710H Adapter: 0 ID: 1

Режим чтения : Достоверность
Использование точного потока : Да
Отключение кэша аудио : Да
Использование указателей C2 : Нет

Коррекция смещения при чтении : 48
Способность читать области Lead-in и Lead-out : Нет
Заполнение пропущенных сэмплов тишиной : Да
Удаление блоков с тишиной в начале и конце : Нет
При вычислениях CRC использовались нулевые сэмплы : Да
Интерфейс : Встроенный Win32-интерфейс для Win NT/2000

Выходной формат : Monkey's Audio (без потерь)
Выбранный битрейт : Fast Lossless Compression
Качество : Высокий
Добавление ID3-тэга : Да
Утилита сжатия : C:\Program Files (x86)\Monkey's Audio\MAC.exe

TOC извлечённого CD

Трек | Старт | Длительность | Начальный сектор | Конечный сектор
---------------------------------------------------------------------
1 | 0:00.00 | 3:23.07 | 0 | 15231
2 | 3:23.07 | 3:36.63 | 15232 | 31494
3 | 6:59.70 | 4:02.17 | 31495 | 49661
4 | 11:02.12 | 3:05.48 | 49662 | 63584
5 | 14:07.60 | 1:59.70 | 63585 | 72579
6 | 16:07.55 | 5:05.05 | 72580 | 95459
7 | 21:12.60 | 4:14.05 | 95460 | 114514
8 | 25:26.65 | 4:59.07 | 114515 | 136946
9 | 30:25.72 | 5:13.50 | 136947 | 160471
10 | 35:39.47 | 4:15.38 | 160472 | 179634
11 | 39:55.10 | 4:35.65 | 179635 | 200324

Характеристики диапазона извлечения и сообщения об ошибках

Выбранный диапазон

Имя файла E:\EAC Rips\The Police . 1983 . Synchronicity {A&M Records, CD 3735, USA}\The Police - Synchronicity.wav

Пиковый уровень 86.6 %
Качество диапазона 100.0 %
CRC копии 510F37B2
Копирование... OK

Ошибок не произошло

AccurateRip: сводка

Трек 1 точное извлечение (доверие 3) [3FC9E21B]
Трек 2 точное извлечение (доверие 3) [C4C2ABA5]
Трек 3 точное извлечение (доверие 3) [9C0DEFB0]
Трек 4 точное извлечение (доверие 3) [B10CE443]
Трек 5 точное извлечение (доверие 3) [207B642B]
Трек 6 точное извлечение (доверие 3) [A8BFD460]
Трек 7 точное извлечение (доверие 3) [E5994985]
Трек 8 точное извлечение (доверие 3) [EAB03234]
Трек 9 точное извлечение (доверие 3) [25C471B1]
Трек 10 точное извлечение (доверие 3) [DDB5BB70]
Трек 11 точное извлечение (доверие 3) [792D2BAD]

Все треки извлечены точно

Конец отчёта
Треклист:
01. Roxanne
02. Can't Stand Losing You
03. Message In A Bottle
04. Walking On The Moon
05. Don't Stand So Close To Me '86
06. De Do Do Do De Da Da Da
07. Every Little Thing She Does Is Magic
08. Invisible Sun
09. Spirits In The Material World
10. Every Breath You Take
11. King Of Pain
12. Wrapped Around Your Finger
Exact Audio Copy V0.99 prebeta 5 from 4. May 2009

Отчёт EAC об извлечении

The Police / The Singles

Дисковод: Optiarc DVD RW AD-7710H Adapter: 0 ID: 1

Режим чтения : Достоверность
Использование точного потока : Да
Отключение кэша аудио : Да
Использование указателей C2 : Нет

Коррекция смещения при чтении : 48
Способность читать области Lead-in и Lead-out : Нет
Заполнение пропущенных сэмплов тишиной : Да
Удаление блоков с тишиной в начале и конце : Нет
При вычислениях CRC использовались нулевые сэмплы : Да
Интерфейс : Встроенный Win32-интерфейс для Win NT/2000

Выходной формат : Monkey's Audio (без потерь)
Выбранный битрейт : Fast Lossless Compression
Качество : Высокий
Добавление ID3-тэга : Да
Утилита сжатия : C:\Program Files (x86)\Monkey's Audio\MAC.exe

TOC извлечённого CD

Трек | Старт | Длительность | Начальный сектор | Конечный сектор
---------------------------------------------------------------------
1 | 0:00.00 | 3:12.27 | 0 | 14426
2 | 3:12.27 | 2:48.70 | 14427 | 27096
3 | 6:01.22 | 4:49.55 | 27097 | 48826
4 | 10:51.02 | 5:02.00 | 48827 | 71476
5 | 15:53.02 | 4:49.05 | 71477 | 93156
6 | 20:42.07 | 4:07.00 | 93157 | 111681
7 | 24:49.07 | 4:19.70 | 111682 | 131176
8 | 29:09.02 | 3:44.08 | 131177 | 147984
9 | 32:53.10 | 2:58.50 | 147985 | 161384
10 | 35:51.60 | 4:12.55 | 161385 | 180339
11 | 40:04.40 | 4:57.45 | 180340 | 202659
12 | 45:02.10 | 5:13.72 | 202660 | 226206

Характеристики диапазона извлечения и сообщения об ошибках

Выбранный диапазон

Имя файла E:\EAC Rips\The Police . 1986 . Every Breath You Take - The Singles {A&M Records, CD 3902 DIDY 824, USA}\The Police - The Singles.wav

Пиковый уровень 100.0 %
Качество диапазона 100.0 %
CRC копии 30569C31
Копирование... OK

Ошибок не произошло

AccurateRip: сводка

Трек 1 точное извлечение (доверие 3) [3B720B20]
Трек 2 точное извлечение (доверие 3) [1983D78C]
Трек 3 точное извлечение (доверие 3) [E8D7C291]
Трек 4 точное извлечение (доверие 3) [6CC85076]
Трек 5 точное извлечение (доверие 3) [A72FBC1D]
Трек 6 точное извлечение (доверие 3) [F1ADE2E9]
Трек 7 точное извлечение (доверие 3) [5450897E]
Трек 8 точное извлечение (доверие 3) [957929EA]
Трек 9 точное извлечение (доверие 3) [A4EEE0D6]
Трек 10 точное извлечение (доверие 3) [8912BE72]
Трек 11 точное извлечение (доверие 3) [EE79A62B]
Трек 12 точное извлечение (доверие 3) [2DC82DBC]

Все треки извлечены точно

Конец отчёта
Треклист:
01. Finchley Children's Music Group – When The Roll Is Called Up Yonder
02. Sting – Brimstone & Treacle
03. Sting – Narration
04. The Police – How Stupid Mr. Bates
05. Sting – Only You
06. The Police – I Burn For You
07. Sting – Spread A Little Happiness
08. Go-Go's – We Got The Beat
09. Sting – You Know I Had The Strangest Dream
10. Squeeze – Up The Junction
11. The Brimstone Chorale – Bless This House
12. The Police – A Kind Of Loving
13. Sting – Brimstone 2
Exact Audio Copy V0.99 prebeta 5 from 4. May 2009

Отчёт EAC об извлечении

Various / Brimstone & Treacle

Дисковод: Optiarc DVD RW AD-7710H Adapter: 0 ID: 1

Режим чтения : Достоверность
Использование точного потока : Да
Отключение кэша аудио : Да
Использование указателей C2 : Нет

Коррекция смещения при чтении : 48
Способность читать области Lead-in и Lead-out : Нет
Заполнение пропущенных сэмплов тишиной : Да
Удаление блоков с тишиной в начале и конце : Нет
При вычислениях CRC использовались нулевые сэмплы : Да
Интерфейс : Встроенный Win32-интерфейс для Win NT/2000

Выходной формат : Monkey's Audio (без потерь)
Выбранный битрейт : Fast Lossless Compression
Качество : Высокий
Добавление ID3-тэга : Да
Утилита сжатия : C:\Program Files (x86)\Monkey's Audio\MAC.exe

TOC извлечённого CD

Трек | Старт | Длительность | Начальный сектор | Конечный сектор
---------------------------------------------------------------------
1 | 0:00.00 | 2:07.18 | 0 | 9542
2 | 2:07.18 | 2:15.07 | 9543 | 19674
3 | 4:22.25 | 4:04.05 | 19675 | 37979
4 | 8:26.30 | 2:43.13 | 37980 | 50217
5 | 11:09.43 | 2:38.27 | 50218 | 62094
6 | 13:47.70 | 4:52.23 | 62095 | 84017
7 | 18:40.18 | 3:27.10 | 84018 | 99552
8 | 22:07.28 | 2:31.55 | 99553 | 110932
9 | 24:39.08 | 2:23.50 | 110933 | 121707
10 | 27:02.58 | 3:08.47 | 121708 | 135854
11 | 30:11.30 | 0:41.20 | 135855 | 138949
12 | 30:52.50 | 2:05.00 | 138950 | 148324
13 | 32:57.50 | 4:10.13 | 148325 | 167087

Характеристики диапазона извлечения и сообщения об ошибках

Выбранный диапазон

Имя файла E:\EAC Rips\VA . 1982 . Brimstone & Treacle (OST) {A&M Records, I.R.S., CD 3245, USA}\Various - Brimstone & Treacle.wav

Пиковый уровень 87.8 %
Качество диапазона 99.9 %
CRC копии D97B9DE0
Копирование... OK

Ошибок не произошло

AccurateRip: сводка

Трек 1 точность не определена (достоверность 2) [25C0F45E], AccurateRip вернул [02F07085]
Трек 2 точность не определена (достоверность 3) [63CC2BF4], AccurateRip вернул [1E540311]
Трек 3 точность не определена (достоверность 2) [174D53BE], AccurateRip вернул [8617D0FA]
Трек 4 точность не определена (достоверность 2) [C6A5F8A7], AccurateRip вернул [632B6C80]
Трек 5 точность не определена (достоверность 2) [74DD78A6], AccurateRip вернул [08AECEFE]
Трек 6 точность не определена (достоверность 3) [447BF727], AccurateRip вернул [1B61A8F7]
Трек 7 точность не определена (достоверность 3) [B00727AA], AccurateRip вернул [771FCAE6]
Трек 8 точность не определена (достоверность 3) [2BC95807], AccurateRip вернул [6A1063C4]
Трек 9 точность не определена (достоверность 2) [68C18942], AccurateRip вернул [0623F345]
Трек 10 точность не определена (достоверность 3) [A21E78CA], AccurateRip вернул [93309B51]
Трек 11 точность не определена (достоверность 2) [2EF0303F], AccurateRip вернул [1CB775C9]
Трек 12 точность не определена (достоверность 2) [24BF7775], AccurateRip вернул [C5D9FAC8]
Трек 13 точность не определена (достоверность 3) [E233F9A6], AccurateRip вернул [578282C2]

Ни один трек не прошёл проверки на точность
В вашей базе может быть иной вариант штамповки диска

Конец отчёта


Трекер:  [ 21-Янв-2013 23:17 ]

  

Скачать .torrent

Размер .torrent файла 33 KB


Размер: 1.89 GB
Хэш (hash) релиза: 47adefb35605da0e47f99e656870d91a4d7ac70a

Торренты, похожие на The Police скачать торрент

Форум Название Автор Размер S L Добавлен
Зарубежный Rock ·· (Soft Rock, New Wave) The Police - Every Breath You Take: The Singles - 1986, FLAC (image+.cue), lossless _N_ 417820060398 MB 0 0 1350909480

15:38

22-Окт-12

Саундтреки к играм (mp3) ·· (Soundtrack) This Is The Police Official Soundtrack Deluxe Edition (Ben Matthews and others) - 2016, MP3, 128 kbps Galfimbul 8774952084 MB 0 0 1481820225

19:43

15-Дек-16

Саундтреки к фильмам и мультфильмам (mp3) ·· (Soundtrack) 700 дней войны: мы против участкового / Boku tachi to chûzai san no 700 nichi sensô / 700 Days of Battle: Us vs. the Police (Best Hits 1979) - 2008, MP3, 192-320 kbps Galfimbul 116583145111 MB 0 0 1480918730

09:18

5-Дек-16

Rосk | Mеtаl | Аltеrnаtivе, Рunk, Indереndеnt (mр3) ·· (southern hardcore/melodic hardcore) Madison Pony - Fuck the Police (EP) - 2015, MP3, 320 kbps Galfimbul 3146393230 MB 0 0 1428255979

20:46

5-Апр-15

Зарубежный Rock (video) ·· The Police - Certifiable (Live in Buenos Aires) [2008, Rock, Blu-Ray] Galfimbul 4818727008944.88 GB 0 0 1311919998

09:13

29-Июл-11

Зарубежный Rock (video) ·· The Police - Certifiable (Live in Buenos Aires / 2008) [2008 г., Rock, New Wave, BDRip, 720p] Galfimbul 1584287742714.75 GB 0 0 1311919980

09:13

29-Июл-11

Hi-Res stereo ·· [ADVD][SA] The Police on SACD p1: Outlandos d'Amour - Reggatta de Blanc - Zenyatta Mondatta - 1978-1979-1980/2003 AqvaGen 43992453124.1 GB 0 0 1304304284

05:44

2-Май-11

Rосk | Mеtаl | Аltеrnаtivе, Рunk, Indереndеnt (mр3) ·· (Indie Rock) Tokyo Police Club - Melon Collie and the Infinite Radness (Parts One & Two) - 2017, MP3, 320 kbps Galfimbul 8494918581 MB 0 0 1486031037

13:23

2-Фев-17

Rосk | Mеtаl | Аltеrnаtivе, Рunk, Indереndеnt (mр3) ·· (Indie-Rock) Tokyo Police Club - Melon Collie And The Infinite Radness (Part Two) [EP] - 2016, MP3, 320 kbps Galfimbul 4470803743 MB 0 0 1475442932

00:15

3-Окт-16

Rосk | Mеtаl | Аltеrnаtivе, Рunk, Indереndеnt (mр3) ·· (Indie Pop/ Rock) Tokyo Police Club - Melon Collie And The Infinite Radness (Part One) [EP] - 2016, MP3, 320 kbps Galfimbul 4041526939 MB 3 0 1460059030

22:57

7-Апр-16

Электронная музыка (mp3) ·· (Dubstep, Drum & Bass) Emalkay - Flesh & Bone EP (feat. Rod Azlan) (The Others, Delta Heavy, Dismantle) (Dub Police Records [DP062D]) - 2012, MP3 (tracks), 320 kbps Galfimbul 4197947640 MB 0 0 1419338806

15:46

23-Дек-14

Rосk | Mеtаl | Аltеrnаtivе, Рunk, Indереndеnt (losslеss) ·· (Hard Rock) Dream Police - Messing With The Blues (ESCA 5504) - 1991, FLAC (image+.cue), lossless Galfimbul 379104337362 MB 0 0 1380206792

17:46

26-Сен-13

Еще никто не оставлял запись к записи скачать торрент The Police . Будь первым!

!Обратная связь