Скачать через торрент музыку The Doobie Brothers - Rockin Down The Highway: The Wildlife Concert бесплатно без регистрации torrent

Если у вас наблюдаются проблемы со скриншотами, переходом по ссылками, скачиванием торрентов - проблемы в блокировщике рекламы AdBlock. #хорошегоДня!


Статистика раздачи
Размер:  824 MB   |    Зарегистрирован:  4 года 8 месяцев   |    .torrent скачан:  37 раз   |   
Раздают:  1  
   
Загрузка...
 
Автор Сообщение

Galfimbul

avatar Galfimbul


The Doobie Brothers / Rockin' Down The Highway: The Wildlife Concert (2CD)

Жанр: Rock, Classic Rock
Страна-производитель диска: USA
Год издания: 1996
Издатель (лейбл): Legacy / Sony Music Distribution
Номер по каталогу: 64996
Страна: USA
Аудиокодек: FLAC (*.flac)
Тип рипа: image+.cue
Битрейт аудио: lossless
Продолжительность: 110:37
Источник (релизер): CD
Наличие сканов в содержимом раздачи: да
Треклист:
Треклист
01 Dangerous
02 Jesus Is Just Alright
03 Take Me In Your Arms (Rock Me A Little While)
04 Slow Burn
05 Dependin' On You
06 Another Park, Another Sunday
07 The Doctor
08 Slack Key Soquel Rag (Instrumental)
09 South City Midnight Lady
10 Eyes of Silver
11 Black Water
12 Takin' It To The Streets
Exact Audio Copy V1.0 beta 2 from 29. April 2011

Отчёт EAC об извлечении, выполненном 18. января 2013, 18:03

The Doobie Brothers / Rockin' Down The Highway: The Wildlife Concert CD 1

Дисковод: ASUS SDRW-08D2S-U Adapter: 1 ID: 0

Режим чтения : ДостоверностьИспользование точного потока : ДаОтключение кэша аудио : ДаИспользование указателей C2 : Нет

Коррекция смещения при чтении : 6Способность читать области Lead-in и Lead-out : НетЗаполнение пропущенных сэмплов тишиной : ДаУдаление блоков с тишиной в начале и конце : НетПри вычислениях CRC использовались нулевые сэмплы : ДаИнтерфейс : Встроенный Win32-интерфейс для Win NT/2000

Выходной формат : Пользовательский кодировщикВыбранный битрейт : 128 kBit/sКачество : ВысокийДобавление ID3-тега : НетУтилита сжатия : C:\Program Files\Exact Audio Copy\FLAC\FLAC.EXEДополнительные параметры : -6 -V -T "ARTIST=%artist%" -T "TITLE=%title%" -T "ALBUM=%albumtitle%" -T "DATE=%year%" -T "TRACKNUMBER=%tracknr%" -T "GENRE=%genre%" -T "COMMENT=%comment%" -T "BAND=%albuminterpret%" -T "COMPOSER=%composer%" %haslyrics%--tag-from-

TOC извлечённого CD

Трек | Старт | Длительность | Начальный сектор | Конечный сектор --------------------------------------------------------------------- 1 | 0:00.00 | 5:58.47 | 0 | 26896 2 | 5:58.47 | 4:51.63 | 26897 | 48784 3 | 10:50.35 | 3:48.52 | 48785 | 65936 4 | 14:39.12 | 4:44.08 | 65937 | 87244 5 | 19:23.20 | 4:13.00 | 87245 | 106219 6 | 23:36.20 | 5:04.40 | 106220 | 129059 7 | 28:40.60 | 4:31.30 | 129060 | 149414 8 | 33:12.15 | 1:59.07 | 149415 | 158346 9 | 35:11.22 | 5:37.33 | 158347 | 183654 10 | 40:48.55 | 3:12.62 | 183655 | 198116 11 | 44:01.42 | 4:32.08 | 198117 | 218524 12 | 48:33.50 | 4:42.57 | 218525 | 239731

Характеристики диапазона извлечения и сообщения об ошибках

Выбранный диапазон

Имя файла D:\FLAC\The Doobie Brothers - Rockin' Down The Highway- The Wildlife Concert CD 1.wav

Пиковый уровень 97.7 % Скорость извлечения 3.0 X Качество диапазона 100.0 % CRC теста 69EC1884 CRC копии 69EC1884 Копирование... OK

Ошибок не произошло

AccurateRip: сводка

Трек 1 : извлечено точно (доверие 5) [84DD8A2A] (AR v1)Трек 2 : извлечено точно (доверие 5) [AD328D5F] (AR v1)Трек 3 : извлечено точно (доверие 5) [CA5EDD0D] (AR v1)Трек 4 : извлечено точно (доверие 5) [8B6DB06B] (AR v1)Трек 5 : извлечено точно (доверие 5) [D3B0376B] (AR v1)Трек 6 : извлечено точно (доверие 5) [BE6DABD2] (AR v1)Трек 7 : извлечено точно (доверие 5) [430A29E5] (AR v1)Трек 8 : извлечено точно (доверие 5) [B922AF34] (AR v1)Трек 9 : извлечено точно (доверие 5) [0E6A539F] (AR v1)Трек 10 : извлечено точно (доверие 5) [5AE09662] (AR v1)Трек 11 : извлечено точно (доверие 5) [54235B6E] (AR v1)Трек 12 : извлечено точно (доверие 5) [A1B26C7F] (AR v1)

Все треки извлечены точно

Конец отчёта

==== Контрольная сумма отчёта CF9FDD059D4C2C591BF74DBA4ADFC8ECB30A5306D0B8E357623505C375EEF4DD ====
Треклист
01 Rockin' Down The Highway
02 Minute By Minute
03 Wild Ride
04 China Grove
05 Dark Eyed Cajun Woman
06 Neal's Fandango
07 Without You
08 Clear As The Driven Snow
09 Excited
10 What A Fool Believes
11 Long Train Runnin'
12 Listen To The Music
Exact Audio Copy V1.0 beta 2 from 29. April 2011

Отчёт EAC об извлечении, выполненном 18. января 2013, 16:39

The Doobie Brothers / The Wildlife Concert - Disk 2

Дисковод: ASUS SDRW-08D2S-U Adapter: 1 ID: 0

Режим чтения : ДостоверностьИспользование точного потока : ДаОтключение кэша аудио : ДаИспользование указателей C2 : Нет

Коррекция смещения при чтении : 6Способность читать области Lead-in и Lead-out : НетЗаполнение пропущенных сэмплов тишиной : ДаУдаление блоков с тишиной в начале и конце : НетПри вычислениях CRC использовались нулевые сэмплы : ДаИнтерфейс : Встроенный Win32-интерфейс для Win NT/2000

Выходной формат : Пользовательский кодировщикВыбранный битрейт : 128 kBit/sКачество : ВысокийДобавление ID3-тега : НетУтилита сжатия : C:\Program Files\Exact Audio Copy\FLAC\FLAC.EXEДополнительные параметры : -6 -V -T "ARTIST=%artist%" -T "TITLE=%title%" -T "ALBUM=%albumtitle%" -T "DATE=%year%" -T "TRACKNUMBER=%tracknr%" -T "GENRE=%genre%" -T "COMMENT=%comment%" -T "BAND=%albuminterpret%" -T "COMPOSER=%composer%" %haslyrics%--tag-from-

TOC извлечённого CD

Трек | Старт | Длительность | Начальный сектор | Конечный сектор --------------------------------------------------------------------- 1 | 0:00.00 | 3:29.12 | 0 | 15686 2 | 3:29.12 | 4:22.18 | 15687 | 35354 3 | 7:51.30 | 3:54.72 | 35355 | 52976 4 | 11:46.27 | 4:02.38 | 52977 | 71164 5 | 15:48.65 | 5:58.25 | 71165 | 98039 6 | 21:47.15 | 3:27.27 | 98040 | 113591 7 | 25:14.42 | 6:45.33 | 113592 | 143999 8 | 32:00.00 | 5:22.57 | 144000 | 168206 9 | 37:22.57 | 5:30.25 | 168207 | 192981 10 | 42:53.07 | 3:54.40 | 192982 | 210571 11 | 46:47.47 | 5:55.68 | 210572 | 237264 12 | 52:43.40 | 5:29.60 | 237265 | 261999

Характеристики диапазона извлечения и сообщения об ошибках

Выбранный диапазон

Имя файла D:\FLAC\The Doobie Brothers - The Wildlife Concert - Disk 2.wav

Пиковый уровень 97.7 % Скорость извлечения 3.0 X Качество диапазона 100.0 % CRC теста 492BFC62 CRC копии 492BFC62 Копирование... OK

Ошибок не произошло

AccurateRip: сводка

Трек 1 : извлечено точно (доверие 5) [63E104AB] (AR v1)Трек 2 : извлечено точно (доверие 5) [ED9FB7AB] (AR v1)Трек 3 : извлечено точно (доверие 5) [8D8CD21B] (AR v1)Трек 4 : извлечено точно (доверие 5) [08D25643] (AR v1)Трек 5 : извлечено точно (доверие 5) [60D53792] (AR v1)Трек 6 : извлечено точно (доверие 5) [C6B214B4] (AR v1)Трек 7 : извлечено точно (доверие 5) [825D8542] (AR v1)Трек 8 : извлечено точно (доверие 5) [2D196AD5] (AR v1)Трек 9 : извлечено точно (доверие 5) [68DC391E] (AR v1)Трек 10 : извлечено точно (доверие 5) [4BC6735F] (AR v1)Трек 11 : извлечено точно (доверие 5) [F26AB10D] (AR v1)Трек 12 : извлечено точно (доверие 5) [7A95C46D] (AR v1)

Все треки извлечены точно

Конец отчёта

==== Контрольная сумма отчёта 14DD91800DBB8668F52FD99AB788BDEC4FD8C1728E5B1392F7529C1CD5B81ABA ====


Трекер:  [ 18-Янв-2013 23:21 ]

  

Скачать .torrent

Размер .torrent файла 18 KB


Размер: 824 MB
Хэш (hash) релиза: 9fad1d44b5b35cafe613ba278f35fa84d9cac415

Еще никто не оставлял запись к записи скачать торрент The Doobie Brothers - Rockin Down The Highway: The Wildlife Concert . Будь первым!

!Обратная связь