Скачать через торрент музыку David Bowie - The Gospel According To David Bowie - 1993, FLAC бесплатно без регистрации torrent

Если у вас наблюдаются проблемы со скриншотами, переходом по ссылками, скачиванием торрентов - проблемы в блокировщике рекламы AdBlock. #хорошегоДня!


Статистика раздачи
Размер:  184 MB   |    Зарегистрирован:  4 года 6 месяцев   |    .torrent скачан:  23 раза   |   
Раздают:  1  
   
Загрузка...
 
Автор Сообщение

Galfimbul

avatar Galfimbul


David Bowie / The Gospel According To David Bowie

Жанр: Classic Rock / Glam Rock / Art Rock
Страна-производитель диска: Germany
Год издания: 1993
Издатель (лейбл): Spectrum Music / Karussell Ltd.
Номер по каталогу: 550 021-2
Страна: UK

Аудиокодек: FLAC (*.flac)
Тип рипа: image+.cue
Режим рипа: test & copy
Битрейт аудио: lossless
Продолжительность: 00:40:46

Источник (релизер): sewerok
Наличие сканов в содержимом раздачи: нет

Треклист:
01. The Laughing Gnome (1967) [0:03:05.00]
02. Love You Till Tuesday (1967) [0:03:03.00]
03. Did You Ever Have A Dream (1967) [0:02:11.00]
04. Rubber Band (1966) [0:02:05.00]
05. Little Bombardier (1967) [0:03:31.00]
06. Sell Me A Coat (1967) [0:03:02.57]
07. When I Live My Dream (1967) [0:03:26.55]
08. The London Boys (1966) [0:03:23.70]
09. Karma Man (1967) [0:03:08.00]
10. Maid Of Bond Street (1967) [0:01:47.58]
11. There Is A Happy Land (1967) [0:03:16.55]
12. She's Got Medals (1967) [0:02:28.07]
13. Let Me Sleep Beside You (1967) [0:03:29.03]
14. The Gospel According To Tony Day (1967) [0:02:48.62]
Exact Audio Copy V1.0 beta 3 from 29. August 2011

EAC extraction logfile from 18. January 2013, 20:05

David Bowie / The Gospel According To David Bowie

Used drive : TSSTcorpCD/DVDW TS-L632D Adapter: 0 ID: 0

Read mode : SecureUtilize accurate stream : YesDefeat audio cache : YesMake use of C2 pointers : No

Read offset correction : 6Overread into Lead-In and Lead-Out : NoFill up missing offset samples with silence : YesDelete leading and trailing silent blocks : NoNull samples used in CRC calculations : YesUsed interface : Native Win32 interface for Win NT & 2000

Used output format : User Defined EncoderSelected bitrate : 896 kBit/sQuality : HighAdd ID3 tag : NoCommand line compressor : C:\Program Files (x86)\Exact Audio Copy\Flac\flac.exeAdditional command line options : -8 -V -T "Date=%year%" -T "Genre=%genre%" -T "COMMENT=ripped by sewerok®" %source%

TOC of the extracted CD

Track | Start | Length | Start sector | End sector --------------------------------------------------------- 1 | 0:00.33 | 3:05.00 | 33 | 13907 2 | 3:05.33 | 3:03.00 | 13908 | 27632 3 | 6:08.33 | 2:11.00 | 27633 | 37457 4 | 8:19.33 | 2:05.00 | 37458 | 46832 5 | 10:24.33 | 3:31.00 | 46833 | 62657 6 | 13:55.33 | 3:02.57 | 62658 | 76364 7 | 16:58.15 | 3:26.55 | 76365 | 91869 8 | 20:24.70 | 3:23.70 | 91870 | 107164 9 | 23:48.65 | 3:08.00 | 107165 | 121264 10 | 26:56.65 | 1:47.58 | 121265 | 129347 11 | 28:44.48 | 3:16.55 | 129348 | 144102 12 | 32:01.28 | 2:28.07 | 144103 | 155209 13 | 34:29.35 | 3:29.03 | 155210 | 170887 14 | 37:58.38 | 2:48.62 | 170888 | 183549

Range status and errors

Selected range

Filename G:\David Bowie ‎– The Gospel According To David Bowie [1993]\David Bowie - The Gospel According To David Bowie.wav

Peak level 100.0 % Extraction speed 1.6 X Range quality 100.0 % Test CRC 12B6630C Copy CRC 12B6630C Copy OK

No errors occurred

AccurateRip summary

Track 1 accurately ripped (confidence 14) [381CA3FC] (AR v1)Track 2 accurately ripped (confidence 15) [B11893E3] (AR v1)Track 3 accurately ripped (confidence 15) [2B6ADA86] (AR v1)Track 4 accurately ripped (confidence 15) [32DFF57B] (AR v1)Track 5 accurately ripped (confidence 15) [EAFA85CB] (AR v1)Track 6 accurately ripped (confidence 15) [C430546E] (AR v1)Track 7 accurately ripped (confidence 15) [5337AB41] (AR v1)Track 8 accurately ripped (confidence 15) [57C63505] (AR v1)Track 9 accurately ripped (confidence 15) [BE01AA04] (AR v1)Track 10 accurately ripped (confidence 15) [C6204CFB] (AR v1)Track 11 accurately ripped (confidence 15) [011A347B] (AR v1)Track 12 accurately ripped (confidence 15) [ECDEB1BB] (AR v1)Track 13 accurately ripped (confidence 15) [ABD37B83] (AR v1)Track 14 accurately ripped (confidence 15) [6CBDEA90] (AR v1)

All tracks accurately ripped

End of status report

==== Log checksum 526DDCAB3E324FA3758CE9A569C1A341B928DA756671F8C66C82DFEA4ED768C2 ====


Трекер:  [ 18-Янв-2013 23:21 ]

  

Скачать .torrent

Размер .torrent файла 15 KB


Размер: 184 MB
Хэш (hash) релиза: 8cbca46e4b304b1e86f42463fa4713a028e4136d

Еще никто не оставлял запись к записи скачать торрент David Bowie - The Gospel According To David Bowie - 1993, FLAC . Будь первым!

!Обратная связь