Скачать через торрент музыку The Grip - Be Yourself - 1990, APE бесплатно без регистрации torrent

Если у вас наблюдаются проблемы со скриншотами, переходом по ссылками, скачиванием торрентов - проблемы в блокировщике рекламы AdBlock. #хорошегоДня!


Статистика раздачи
Размер:  310 MB   |    Зарегистрирован:  4 года 7 месяцев   |    .torrent скачан:  29 раз   |   
Раздают:  1  
   
Загрузка...
 
Автор Сообщение

Galfimbul

avatar Galfimbul


The Grip / Be Yourself

Жанр: hard rock
Страна-производитель диска: UK
Год издания: 1990
Издатель (лейбл): Razor
Номер по каталогу: RAZMCD 46
Страна: UK
Аудиокодек: APE (*.ape)
Тип рипа: image+.cue
Битрейт аудио: lossless
Источник (релизер): свой рипъ
Наличие сканов в содержимом раздачи: нет
Треклист:
01. Crush On You
02. Two Hearts
03. When The Rain Comes Down
04. Baby Blue
05. The Ballad Of Vera Daydream
06. Bet You're Gonna Lose Her
07. She Walks Out
08. We Don't Want It
09. Be Yourself
10. England You're Dead
Exact Audio Copy V0.99 prebeta 4 from 23. January 2008

EAC extraction logfile from 14. January 2013, 20:02

The Grip / Be Yourself

Used drive : PIONEER DVD-RW DVR-212 Adapter: 5 ID: 0

Read mode : SecureUtilize accurate stream : YesDefeat audio cache : YesMake use of C2 pointers : No

Read offset correction : 48Overread into Lead-In and Lead-Out : NoFill up missing offset samples with silence : YesDelete leading and trailing silent blocks : NoNull samples used in CRC calculations : YesUsed interface : Native Win32 interface for Win NT & 2000

Used output format : Internal WAV RoutinesSample format : 44.100 Hz; 16 Bit; Stereo

TOC of the extracted CD

Track | Start | Length | Start sector | End sector --------------------------------------------------------- 1 | 0:00.00 | 4:38.15 | 0 | 20864 2 | 4:38.15 | 3:51.20 | 20865 | 38209 3 | 8:29.35 | 5:01.70 | 38210 | 60854 4 | 13:31.30 | 3:47.02 | 60855 | 77881 5 | 17:18.32 | 6:23.40 | 77882 | 106646 6 | 23:41.72 | 3:23.28 | 106647 | 121899 7 | 27:05.25 | 3:38.25 | 121900 | 138274 8 | 30:43.50 | 3:18.10 | 138275 | 153134 9 | 34:01.60 | 5:47.55 | 153135 | 179214 10 | 39:49.40 | 4:14.70 | 179215 | 198334

Range status and errors

Selected range

Filename D:\temp\The Grip - Be Yourself.wav

Peak level 100.0 % Range quality 100.0 % Copy CRC 7B662105 Copy OK

No errors occurred

AccurateRip summary

Track 1 accurately ripped (confidence 1) [3123712F]Track 2 accurately ripped (confidence 1) [E372E1D4]Track 3 accurately ripped (confidence 1) [BE0B3DE5]Track 4 accurately ripped (confidence 1) [403C3A5E]Track 5 cannot be verified as accurate (confidence 1) [AA67E6B6], AccurateRip returned [08DEF84E]Track 6 cannot be verified as accurate (confidence 1) [98AD666D], AccurateRip returned [13701905]Track 7 accurately ripped (confidence 1) [3A7EC749]Track 8 accurately ripped (confidence 1) [DD4BA6C2]Track 9 accurately ripped (confidence 1) [46754874]Track 10 accurately ripped (confidence 1) [1AAD8518]

8 track(s) accurately ripped 2 track(s) could not be verified as accurate

Some tracks could not be verified as accurate

End of status report


Трекер:  [ 14-Янв-2013 17:36 ]

  

Скачать .torrent

Размер .torrent файла 25 KB


Размер: 310 MB
Хэш (hash) релиза: 64a32e6be262c5fbf242fc9f0e83ae0d75b989f3

Еще никто не оставлял запись к записи скачать торрент The Grip - Be Yourself - 1990, APE . Будь первым!

!Обратная связь