Скачать через торрент музыку F.E.A.S.T. - Strong, Wild and Free - 2012, FLAC бесплатно без регистрации torrent

Если у вас наблюдаются проблемы со скриншотами, переходом по ссылками, скачиванием торрентов - проблемы в блокировщике рекламы AdBlock. #хорошегоДня!


Статистика раздачи
Размер:  498 MB   |    Зарегистрирован:  4 года 10 месяцев   |    .torrent скачан:  22 раза   |   
Раздают:  1  
   
Загрузка...
 
Автор Сообщение

Galfimbul

avatar Galfimbul


F.E.A.S.T. - Strong, Wild and Free - 2012
Жанр: Hard Rock
Год издания: 2012
Издатель (лейбл): Avenue Of Allies Mucic
Номер по каталогу: 12 06 0044
Страна: Italy
Аудиокодек: FLAC (*.flac)
Тип рипа: image+.cue
Битрейт аудио: lossless
Продолжительность: 01:04:06
Источник (релизер): swint68 / Byashka 2011
Наличие сканов в содержимом раздачи: да
Треклист:
01 Strong, Wild And Free 5:04
02 Pleasure And Pain 5:10
03 Heart And Soul 4:42
04 Rock 'n' Roll Flame 5:52
05 Hard Rockin' Man 5:23
06 Gonna Fly 4:27
07 Tell Me You're Ready 4:27
08 It's Not The Same 4:28
09 How Long 4:55
10 A Million Years 5:42
11 Dancing To The Rhythm (Stevie Wonder) 5:42
12 Children Of Beslan 8:07
Fabri Kiareli - vocals, lead and rhythm guitars, acoustic guitars, piano, keyboards, bass
Luke Ballabio - rhythm guitars, lead guitar
Angelo Perini - bass
Mao Granata - drums

Exact Audio Copy V0.99 prebeta 5 from 4. May 2009

Отчёт EAC об извлечении, выполненном 25. декабря 2012, 2:02

F.E.A.S.T. / Strong Wild and Free

Дисковод: TEAC DW-552GA Adapter: 3 ID: 1

Режим чтения : ДостоверностьИспользование точного потока : ДаОтключение кэша аудио : ДаИспользование указателей C2 : Нет

Коррекция смещения при чтении : 6Способность читать области Lead-in и Lead-out : НетЗаполнение пропущенных сэмплов тишиной : ДаУдаление блоков с тишиной в начале и конце : НетПри вычислениях CRC использовались нулевые сэмплы : ДаИнтерфейс : Установленный внешний ASPI-интерфейс

Выходной формат : Внутренние WAV-операцииФормат сэмплов : 44.100 Гц; 16 бит; стерео

TOC извлечённого CD

Трек | Старт | Длительность | Начальный сектор | Конечный сектор --------------------------------------------------------------------- 1 | 0:00.00 | 5:04.46 | 0 | 22845 2 | 5:04.46 | 5:10.48 | 22846 | 46143 3 | 10:15.19 | 4:42.48 | 46144 | 67341 4 | 14:57.67 | 5:52.28 | 67342 | 93769 5 | 20:50.20 | 5:23.26 | 93770 | 118020 6 | 26:13.46 | 4:27.12 | 118021 | 138057 7 | 30:40.58 | 4:27.33 | 138058 | 158115 8 | 35:08.16 | 4:29.73 | 158116 | 178363 9 | 39:38.14 | 4:55.73 | 178364 | 200561 10 | 44:34.12 | 5:42.00 | 200562 | 226211 11 | 50:16.12 | 5:42.51 | 226212 | 251912 12 | 55:58.63 | 8:07.45 | 251913 | 288482

Характеристики диапазона извлечения и сообщения об ошибках

Выбранный диапазон

Имя файла D:\Music\Byashka\F.E.A.S.T. - Strong Wild and Free.wav

Пиковый уровень 100.0 % Качество диапазона 100.0 % CRC копии 5C8D43A0 Копирование... OK

Ошибок не произошло

Конец отчёта
-----------------------

DON'T MODIFY THIS FILE

-----------------------

PERFORMER: auCDtect Task Manager, ver. 1.5.1RC6 build 1.5.1.7Copyright (c) 2008-2010 y-soft. All rights reservedhttp://y-soft.org

ANALYZER: auCDtect: CD records authenticity detector, version 0.8.2Copyright (c) 2004 Oleg Berngardt. All rights reserved.Copyright (c) 2004 Alexander Djourik. All rights reserved.

FILE: F.E.A.S.T. - Strong Wild and Free.wav Size: 678512060 Hash: 0E5AE4382E48E9FCCA9815403B9EF12F Accuracy: -m0 Conclusion: CDDA 100% Signature: 444FA128FA1BC597C2C63E90337110FEDF5322B7
AUDIOCHECKER v2.0 beta (build 457) - by Dester - <a href="mailto:opdester@freemail.hu" class="postLink">opdester@freemail.hu</a>~~~~~~~~~~~~~~~~~~~~~~~~~~~~~~~~~~-=== НЕ РЕДАКТИРУЙТЕ ЭТОТ ФАЙЛ! ===-

Путь: ...\Temp

1 -=- F.E.A.S.T. - Strong Wild and Free.flac -=- CDDA (100%)

60692852



Трекер:  [ 14-Янв-2013 17:36 ]

  

Скачать .torrent

Размер .torrent файла 20 KB


Размер: 498 MB
Хэш (hash) релиза: da84ac73499ad318463b720fde51152bdd85afe6

Еще никто не оставлял запись к записи скачать торрент F.E.A.S.T. - Strong, Wild and Free - 2012, FLAC . Будь первым!

!Обратная связь