Скачать через торрент Стальной алхимик 2 Стальной алхимик: Братство бесплатно русская версия torrent активатор

Если у вас наблюдаются проблемы со скриншотами, переходом по ссылками, скачиванием торрентов - проблемы в блокировщике рекламы AdBlock. #хорошегоДня!


Статистика раздачи
Размер:  14 GB   |    Зарегистрирован:  4 года 9 месяцев   |    .torrent скачан:  110 раз   |   
Раздают:  1  
   
Загрузка...
 
Автор Сообщение

L


Стальной алхимик: Братство
Оригинальное название: 鋼の錬金術師
Английское название: FullMetal Alchemist: Brotherhood
Год выпуска: 2010
Страна: Япония
Жанр:приключения, фэнтези
Продолжительность: ТВ [64], 25 мин.
Перевод : Любительский двухголосый Ancord & Noir
Любительский одноголосый Persona99 (1-62)
Русские субтитры: нет

Количество серий: 64 из 64
Режиссёр: Ириэ Ясухиро
Студия:
Описание: Они нарушили основной закон алхимии и жестоко за это поплатились. И теперь два брата странствуют по миру в поисках загадочного философского камня, который поможет им исправить содеянное… Это мир, в котором вместо науки властвует магия, в котором люди способны управлять стихиями. Но у магии тоже есть законы, которым нужно следовать. В противном случае расплата будет жестокой и страшной. Два брата - Эдвард и Альфонс Элрики - пытаются совершить запретное: воскресить умершую мать. Однако закон равноценного обмена гласит: чтобы что-то получить, ты должен отдать нечто равноценное.
© Hollow, World Art
Качество: HDTVRip

Формат: *.m4v
Видео кодек: H.264
аудио кодек: ААС
Разрешение: 576х320
Другие параметры видео: 960 Кбит/сек, 16:9, 23,976 кадр/сек
Аудио Rus1: 160 Кбит/сек, 2 канала(ов), 48,0 КГц
Аудио Rus2: 160 Кбит/сек, 2 канала(ов), 48,0 КГц
Вшитая обложка: есть
Доп. теги (режиссёр, актёры и т.д.): нет
Телешоу/видеоклип : есть
Главы: прописаны
Серия/сезон: есть
01. The Full Metal Alchemist
02. The Day It Began
03. Town of Heretics
04. Anguish of the Alchemist
05. Rain of Grief
06. The Road Of Hope
07. The Hidden Truth
08. Research Laboratory
09. Created Feelings
10. Separate Paths
11. The Miracle of Rush Valley
12. One is All, All is One
13. The Beasts of Dublith
14. Those Who Lurk Underground
15. Messenger from the East
16. The Footsteps of a War Comrade
17. Cool-Headed Flames
18. On the Palm of an Arrogant Human Being
19. The Death of the Undying
20. The Father Standing Before a Grave
21. The Fool's Progress
22. Distant Backs
23. The Girl of The Battlefield
24. Within the Stomach
25. The Door of Darkness
26. Reunion
27. Banquet at the Crevice
28. Father
29. The Fool's Struggle
30. The Ishbal Annihilation Campaign
31. The Promise Made For 520 Cenz
32. The Son of the Fuhrer
33. The Northern Wall of Briggs
34. Ice Queen
35. The Shape of This Country
36. Family Portrait
37. The Original Homunculus
38. Clash in Baschool
39. Daydream
40. Homunculus
41. Hel
42. The Signs of a Counterattack
43. The Ant's Bite
44. A Full Recovery
45. The Promised Day
46. The Creeping Shadow
47. Messenger of Darkness
48. The Underground Oath
49. Parent and Child Feelings
50. Central Riot
51. Immortal Army
52. Everyone's Power
53. Flame of Vengeance
54. Beyond the Raging Fire
55. The Adults' Way of Life
56. Return of the Fuhrer
57. Eternal Rest
58. Human Sacrifice
59. Light that Was Lost
60. Eye of the Sky, Gate of the Earth
61. The One Who Devoured God
62. The Violent Counterattack
63. The Other Side of the Gate
Формат                           : MPEG-4
Профиль формата                  : Base Media / Version 2
Идентификатор кодека             : mp42
Размер файла                     : 227 Мбайт
Продолжительность                : 24 м.
Общий поток                      : 1307 Кбит/сек
Дата кодирования                 : UTC 2011-03-28 12:57:55
Дата пометки                     : UTC 2011-03-29 13:05:22
Программа кодирования            : HandBrake 0.9.5 2011010300
Обложка                          : Yes
tvsh                             : Стальной алхимик: Братство
tvsn                             : 2

Видео
Идентификатор                    : 1
Формат                           : AVC
Формат/Информация                : Advanced Video Codec
Профиль формата                  : <a href="mailto:Baseline@L3.0" class="postLink">Baseline@L3.0</a>
Параметр CABAC формата           : Нет
Параметр ReFrames формата        : 1 кадр
Идентификатор кодека             : avc1
Идентификатор кодека/Информация  : Advanced Video Coding
Продолжительность                : 24 м.
Вид битрейта                     : Переменный
Битрейт                          : 960 Кбит/сек
Ширина                           : 576 пикс.
Высота                           : 320 пикс.
Соотношение сторон               : 16:9
Режим частоты кадров             : Переменный
Частота кадров                   : 23,976 кадр/сек
Минимальная частота кадров       : 23,810 кадр/сек
Максимальная частота кадров      : 24,390 кадр/сек
Цветовое пространство            : YUV
Подвыборка цветности             : 4:2:0
Битовая глубина                  : 8 бит
Тип развёртки                    : Прогрессивная
Бит/(Пиксели*Кадры)              : 0.217
Размер потока                    : 170 Мбайт (75%)
Библиотека кодирования           : x264 core 112
Настройки программы              : cabac=0 / ref=1 / deblock=1:0:0 / analyse=0x1:0x131 / me=umh / subme=6 / psy=1 / psy_rd=0.00:0.00 / mixed_ref=0 / me_range=16 / chroma_me=1 / trellis=0 / 8x8dct=0 / cqm=0 / deadzone=21,11 / fast_pskip=0 / chroma_qp_offset=0 / threads=3 / sliced_threads=0 / nr=0 / decimate=1 / interlaced=0 / constrained_intra=0 / bframes=0 / weightp=0 / keyint=240 / keyint_min=24 / scenecut=40 / intra_refresh=0 / rc_lookahead=40 / rc=abr / mbtree=1 / bitrate=960 / ratetol=1.0 / qcomp=0.60 / qpmin=3 / qpmax=51 / qpstep=4 / vbv_maxrate=1500 / vbv_bufsize=2000 / ip_ratio=1.40 / aq=1:1.00 / nal_hrd=none
Дата кодирования                 : UTC 2011-03-28 12:57:55
Дата пометки                     : UTC 2011-03-28 13:13:02
Основные цвета                   : BT.709-5, BT.1361, IEC 61966-2-4, SMPTE RP177
Характеристики трансфера         : BT.709-5, BT.1361
Коэффициенты матрицы             : BT.709-5, BT.1361, IEC 61966-2-4 709, SMPTE RP177

Аудио #1
Идентификатор                    : 2
Формат                           : AAC
Формат/Информация                : Advanced Audio Codec
Профиль формата                  : LC
Идентификатор кодека             : 40
Продолжительность                : 24 м.
Вид битрейта                     : Переменный
Битрейт                          : 160 Кбит/сек
Максимальный битрейт             : 318 Кбит/сек
Канал(ы)                         : 2 канала(ов)
Расположение каналов             : Front: L R
Частота                          : 44,1 КГц
Метод сжатия                     : С потерями
Размер потока                    : 27,7 Мбайт (12%)
Дата кодирования                 : UTC 2011-03-28 12:57:55
Дата пометки                     : UTC 2011-03-29 13:05:22

Аудио #2
Идентификатор                    : 3
Формат                           : AAC
Формат/Информация                : Advanced Audio Codec
Профиль формата                  : LC
Идентификатор кодека             : 40
Продолжительность                : 24 м.
Вид битрейта                     : Переменный
Битрейт                          : 160 Кбит/сек
Максимальный битрейт             : 208 Кбит/сек
Канал(ы)                         : 2 канала(ов)
Расположение каналов             : Front: L R
Частота                          : 44,1 КГц
Метод сжатия                     : С потерями
Размер потока                    : 27,8 Мбайт (12%)
Дата кодирования                 : UTC 2011-03-28 12:57:55
Дата пометки                     : UTC 2011-03-28 13:13:02

Текст
Идентификатор                    : 4
Формат                           : Apple text
Идентификатор кодека             : text
Продолжительность                : 24 м.
Вид битрейта                     : Постоянный
Битрейт                          : 1 бит/сек
Размер потока                    : 115 байт (0%)
Дата кодирования                 : UTC 2011-03-28 12:57:55
Дата пометки                     : UTC 2011-03-28 13:13:02


Трекер:  [ 14-Янв-2013 10:26 ]

  

Скачать .torrent

Размер .torrent файла 81 KB


Размер: 14 GB
Хэш (hash) релиза: 3a3957a97d1d4844d065d917b9a6af87900e5539

Еще никто не оставлял запись к записи скачать торрент Стальной алхимик 2 Стальной алхимик: Братство . Будь первым!

!Обратная связь