Скачать через торрент музыку VA - Polskie Drogi Rocka - 2008, FLAC бесплатно без регистрации torrent

Если у вас наблюдаются проблемы со скриншотами, переходом по ссылками, скачиванием торрентов - проблемы в блокировщике рекламы AdBlock. #хорошегоДня!


Статистика раздачи
Размер:  1.38 GB   |    Зарегистрирован:  4 года 7 месяцев   |    .torrent скачан:  37 раз   |   
Раздают:  1  
   
Загрузка...
 
Автор Сообщение

Galfimbul

avatar Galfimbul


Polskie Drogi Rocka

Жанр: Rock
Год издания: 2008
Страна: Poland
Аудиокодек: FLAC (*.flac)
Тип рипа: tracks+.cue
Битрейт аудио: lossless
Продолжительность: 1:05:19 + 1:09:37 + 1:06:32
Источник (релизер): Польский треккер - спасибо rajkad
Наличие сканов в содержимом раздачи: да
Треклист:
1. Lady Pank - Mniej niż zero2. Republika - Mamona3. Manaam - Lipstick4. Perfect - Autobiografia5. TSA - 516. Zoob - Mój jest ten kawałek podłogi7. Kult - Baranek8. Brygada Kryzys - Przestań śnić9. TILT - Mówię ci, że10. Kobranocka - Hipisówka11. Pidżama Porno - Twoja Generacja12. Blade Loki - No pasaran13. Myslovitz - Zgon14. Renata Przemyk - Własny Pokój15. Pudelsi - Wolność Słowa16. Cool Kids Of Death - Spaliny
1. Golden Life - 24.11.94.2. ONA - Kiedy powiem sobie dość3. De Mono - Moje Miasto Nocą4. Human - Polski5. Mafia - Ja6. Robert Gawliński - Trzy noce z deszczem7. Marcin Rozynek - Siłacz8. Chłopcy z placu broni - Kocham cię9. Kobranocka - Kocham cię jak Irlandię10. Lech Janerka - Tak tylko ty11. ONA - Niekochana12. Rezerwat - Zaopiekuj się mną13. Ewelina Flinta - Żałuję14. Plateau & Renata Przemyk - Nic nie pachnie jak ty.15. Myslovitz - Chłopcy16. Wilki - Son Of The Blue Sky
1. Yuogoton - Malcziki2. Ptaky - Chroń to co masz3. Makowiecki Band - Can’t get you out of my head4. Lenny Valentino - Dom nauki wrażeń5. Negatyw - Amsterdam6. Voo voo - Człowiek wózków7. Atmosphere - Niewielki skrawek ziemi8. Filoka - Głośny śmiech9. Chylińska - Winna10. Piersi - Całuj mnie11. Szwagierkolaska - U cioci na imieninach12. Car is on Fire - Oh Joe13. T. Love - Banalny14. EM - Tramwajwe jak komety15. Pustki - Słabość chwilowa16. Muchy - Galanteria
Exact Audio Copy V0.99 prebeta 5 from 4. May 2009

EAC extraction logfile from 10. September 2010, 23:40

VA / Polskie Drogi Rocka CD1

Used drive : HL-DT-STDVDRAM GSA-4167B Adapter: 0 ID: 0

Read mode : SecureUtilize accurate stream : YesDefeat audio cache : YesMake use of C2 pointers : No

Read offset correction : 667Overread into Lead-In and Lead-Out : NoFill up missing offset samples with silence : YesDelete leading and trailing silent blocks : NoNull samples used in CRC calculations : YesUsed interface : Installed external ASPI interfaceGap handling : Appended to previous track

Used output format : User Defined EncoderSelected bitrate : 1024 kBit/sQuality : HighAdd ID3 tag : YesCommand line compressor : C:\Program Files\FLAC\flac.exeAdditional command line options : -8 -T "artist=%a" -T "title=%t" -T "album=%g" -T "date=%y" -T "tracknumber=%n" -T "genre=%m" %s

TOC of the extracted CD

Track | Start | Length | Start sector | End sector --------------------------------------------------------- 1 | 0:00.00 | 3:59.12 | 0 | 17936 2 | 3:59.12 | 3:37.65 | 17937 | 34276 3 | 7:37.02 | 3:03.52 | 34277 | 48053 4 | 10:40.54 | 4:32.08 | 48054 | 68461 5 | 15:12.62 | 7:03.63 | 68462 | 100249 6 | 22:16.50 | 4:01.10 | 100250 | 118334 7 | 26:17.60 | 4:18.37 | 118335 | 137721 8 | 30:36.22 | 6:29.17 | 137722 | 166913 9 | 37:05.39 | 2:59.49 | 166914 | 180387 10 | 40:05.13 | 5:22.56 | 180388 | 204593 11 | 45:27.69 | 3:27.09 | 204594 | 220127 12 | 48:55.03 | 2:45.32 | 220128 | 232534 13 | 51:40.35 | 2:31.36 | 232535 | 243895 14 | 54:11.71 | 4:21.14 | 243896 | 263484 15 | 58:33.10 | 3:39.28 | 263485 | 279937 16 | 62:12.38 | 3:06.22 | 279938 | 293909

Track 1

Filename E:\Z Audio\EAC\VA - Polskie Drogi Rocka\CD 1 - Drogi do wolności\01 - Lady Pank - Mniej niż zero.wav

Pre-gap length 0:00:02.00

Peak level 96.3 % Track quality 100.0 % Test CRC 459FB8F0 Copy CRC 459FB8F0 Accurately ripped (confidence 2) [8C69045A] Copy OK

Track 2

Filename E:\Z Audio\EAC\VA - Polskie Drogi Rocka\CD 1 - Drogi do wolności\02 - Republika - Mamona.wav

Peak level 94.2 % Track quality 100.0 % Test CRC 7225E758 Copy CRC 7225E758 Accurately ripped (confidence 2) [A008EB8A] Copy OK

Track 3

Filename E:\Z Audio\EAC\VA - Polskie Drogi Rocka\CD 1 - Drogi do wolności\03 - Maanam - Lipstic on the glass.wav

Peak level 96.7 % Track quality 100.0 % Test CRC 7FBC803B Copy CRC 7FBC803B Accurately ripped (confidence 2) [1981BA8C] Copy OK

Track 4

Filename E:\Z Audio\EAC\VA - Polskie Drogi Rocka\CD 1 - Drogi do wolności\04 - Perfect - Autobiografia.wav

Peak level 98.5 % Track quality 100.0 % Test CRC F492AC02 Copy CRC F492AC02 Accurately ripped (confidence 2) [A8959B3F] Copy OK

Track 5

Filename E:\Z Audio\EAC\VA - Polskie Drogi Rocka\CD 1 - Drogi do wolności\05 - TSA - 51.wav

Peak level 100.0 % Track quality 100.0 % Test CRC 85F76E7B Copy CRC 85F76E7B Accurately ripped (confidence 2) [C2B5358F] Copy OK

Track 6

Filename E:\Z Audio\EAC\VA - Polskie Drogi Rocka\CD 1 - Drogi do wolności\06 - Mr. Zoob - Mój jest ten kawałek podłogi.wav

Peak level 98.8 % Track quality 100.0 % Test CRC 096E1537 Copy CRC 096E1537 Accurately ripped (confidence 2) [688A8E3B] Copy OK

Track 7

Filename E:\Z Audio\EAC\VA - Polskie Drogi Rocka\CD 1 - Drogi do wolności\07 - Kult - Baranek.wav

Peak level 100.0 % Track quality 100.0 % Test CRC AE10CEAB Copy CRC AE10CEAB Accurately ripped (confidence 2) [0E56B054] Copy OK

Track 8

Filename E:\Z Audio\EAC\VA - Polskie Drogi Rocka\CD 1 - Drogi do wolności\08 - Brygada Kryzys - Przestań śnić.wav

Peak level 100.0 % Track quality 100.0 % Test CRC 0319B5C1 Copy CRC 0319B5C1 Accurately ripped (confidence 2) [D67FBB9F] Copy OK

Track 9

Filename E:\Z Audio\EAC\VA - Polskie Drogi Rocka\CD 1 - Drogi do wolności\09 - Tilt - Mówię ci, że.wav

Peak level 97.1 % Track quality 99.9 % Test CRC C19A6FAF Copy CRC C19A6FAF Accurately ripped (confidence 2) [739F8C7E] Copy OK

Track 10

Filename E:\Z Audio\EAC\VA - Polskie Drogi Rocka\CD 1 - Drogi do wolności\10 - Kobranocka - Hipisówka.wav

Peak level 97.8 % Track quality 99.9 % Test CRC 6D121D61 Copy CRC 6D121D61 Accurately ripped (confidence 2) [E2F436E3] Copy OK

Track 11

Filename E:\Z Audio\EAC\VA - Polskie Drogi Rocka\CD 1 - Drogi do wolności\11 - Pidżama Porno - Twoja generacja.wav

Peak level 100.0 % Track quality 100.0 % Test CRC 4A17CFD9 Copy CRC 4A17CFD9 Accurately ripped (confidence 2) [CB12B5A1] Copy OK

Track 12

Filename E:\Z Audio\EAC\VA - Polskie Drogi Rocka\CD 1 - Drogi do wolności\12 - Blade Loki - No pasaran.wav

Peak level 98.5 % Track quality 100.0 % Test CRC 3A222DFA Copy CRC 3A222DFA Accurately ripped (confidence 2) [2BBD0026] Copy OK

Track 13

Filename E:\Z Audio\EAC\VA - Polskie Drogi Rocka\CD 1 - Drogi do wolności\13 - Myslovitz - Zgon.wav

Peak level 99.8 % Track quality 100.0 % Test CRC 859F9F6C Copy CRC 859F9F6C Accurately ripped (confidence 2) [FD831D22] Copy OK

Track 14

Filename E:\Z Audio\EAC\VA - Polskie Drogi Rocka\CD 1 - Drogi do wolności\14 - Renata Przemyk - Własny pokój.wav

Peak level 99.4 % Track quality 100.0 % Test CRC 8301F9FD Copy CRC 8301F9FD Accurately ripped (confidence 2) [B146D3EB] Copy OK

Track 15

Filename E:\Z Audio\EAC\VA - Polskie Drogi Rocka\CD 1 - Drogi do wolności\15 - Pudelsi - Wolność słowa.wav

Peak level 97.7 % Track quality 100.0 % Test CRC 835E62F0 Copy CRC 835E62F0 Accurately ripped (confidence 2) [2E59318E] Copy OK

Track 16

Filename E:\Z Audio\EAC\VA - Polskie Drogi Rocka\CD 1 - Drogi do wolności\16 - Cool Kifs of Death - Spaliny.wav

Peak level 99.9 % Track quality 99.9 % Test CRC 458F82C2 Copy CRC 458F82C2 Accurately ripped (confidence 2) [9BF6231B] Copy OK

All tracks accurately ripped

No errors occurred

End of status report
Exact Audio Copy V0.99 prebeta 5 from 4. May 2009

EAC extraction logfile from 11. September 2010, 13:32

VA / Polskie Drogi Rocka CD2

Used drive : HL-DT-STDVDRAM GSA-4167B Adapter: 0 ID: 0

Read mode : SecureUtilize accurate stream : YesDefeat audio cache : YesMake use of C2 pointers : No

Read offset correction : 667Overread into Lead-In and Lead-Out : NoFill up missing offset samples with silence : YesDelete leading and trailing silent blocks : NoNull samples used in CRC calculations : YesUsed interface : Installed external ASPI interfaceGap handling : Appended to previous track

Used output format : User Defined EncoderSelected bitrate : 1024 kBit/sQuality : HighAdd ID3 tag : YesCommand line compressor : C:\Program Files\FLAC\flac.exeAdditional command line options : -8 -T "artist=%a" -T "title=%t" -T "album=%g" -T "date=%y" -T "tracknumber=%n" -T "genre=%m" %s

TOC of the extracted CD

Track | Start | Length | Start sector | End sector --------------------------------------------------------- 1 | 0:00.00 | 4:04.13 | 0 | 18312 2 | 4:04.13 | 4:53.65 | 18313 | 40352 3 | 8:58.03 | 4:01.45 | 40353 | 58472 4 | 12:59.48 | 4:41.49 | 58473 | 79596 5 | 17:41.22 | 5:03.69 | 79597 | 102390 6 | 22:45.16 | 3:05.04 | 102391 | 116269 7 | 25:50.20 | 3:59.43 | 116270 | 134237 8 | 29:49.63 | 4:58.00 | 134238 | 156587 9 | 34:47.63 | 4:51.69 | 156588 | 178481 10 | 39:39.57 | 3:54.74 | 178482 | 196105 11 | 43:34.56 | 5:47.22 | 196106 | 222152 12 | 49:22.03 | 5:04.12 | 222153 | 244964 13 | 54:26.15 | 3:32.54 | 244965 | 260918 14 | 57:58.69 | 3:31.12 | 260919 | 276755 15 | 61:30.06 | 3:56.64 | 276756 | 294519 16 | 65:26.70 | 4:10.16 | 294520 | 313285

Track 1

Filename E:\Z Audio\EAC\VA - Polskie Drogi Rocka\CD 2 - Drogi do miłości\01 - Golden Life - 24.11.94.wav

Pre-gap length 0:00:02.00

Peak level 93.1 % Track quality 100.0 % Test CRC 083CB8A3 Copy CRC 083CB8A3 Accurately ripped (confidence 2) [7F620B15] Copy OK

Track 2

Filename E:\Z Audio\EAC\VA - Polskie Drogi Rocka\CD 2 - Drogi do miłości\02 - O.N.A - Kiedy powiem sobie dość.wav

Peak level 100.0 % Track quality 99.9 % Test CRC 5DD6562C Copy CRC 5DD6562C Accurately ripped (confidence 2) [C9EA206D] Copy OK

Track 3

Filename E:\Z Audio\EAC\VA - Polskie Drogi Rocka\CD 2 - Drogi do miłości\03 - De Mono - Moje miasto nocą.wav

Peak level 91.8 % Track quality 100.0 % Test CRC 614B80FA Copy CRC 614B80FA Accurately ripped (confidence 2) [5A466BD8] Copy OK

Track 4

Filename E:\Z Audio\EAC\VA - Polskie Drogi Rocka\CD 2 - Drogi do miłości\04 - Human - Polski.wav

Peak level 100.0 % Track quality 100.0 % Test CRC 8D4B4FBF Copy CRC 8D4B4FBF Accurately ripped (confidence 2) [832CCBD4] Copy OK

Track 5

Filename E:\Z Audio\EAC\VA - Polskie Drogi Rocka\CD 2 - Drogi do miłości\05 - Mafia - Ja.wav

Peak level 100.0 % Track quality 100.0 % Test CRC A10F2B17 Copy CRC A10F2B17 Accurately ripped (confidence 2) [5807A8F5] Copy OK

Track 6

Filename E:\Z Audio\EAC\VA - Polskie Drogi Rocka\CD 2 - Drogi do miłości\06 - Robert Gawliński - Trzy noce z deszczem.wav

Peak level 97.7 % Track quality 100.0 % Test CRC A955E4B2 Copy CRC A955E4B2 Accurately ripped (confidence 2) [F4C822D9] Copy OK

Track 7

Filename E:\Z Audio\EAC\VA - Polskie Drogi Rocka\CD 2 - Drogi do miłości\07 - Marcin Rozynek - Siłacz.wav

Peak level 85.9 % Track quality 100.0 % Test CRC 46D6990E Copy CRC 46D6990E Accurately ripped (confidence 2) [E3D5E008] Copy OK

Track 8

Filename E:\Z Audio\EAC\VA - Polskie Drogi Rocka\CD 2 - Drogi do miłości\08 - Chłopcy z Placu Broni - Kocham Cię.wav

Peak level 96.3 % Track quality 100.0 % Test CRC C0FDF93C Copy CRC C0FDF93C Accurately ripped (confidence 2) [B410A975] Copy OK

Track 9

Filename E:\Z Audio\EAC\VA - Polskie Drogi Rocka\CD 2 - Drogi do miłości\09 - Kobranocka - Kocham Cię jak Irlandię.wav

Peak level 98.7 % Track quality 100.0 % Test CRC 7A8C8272 Copy CRC 7A8C8272 Accurately ripped (confidence 2) [E0077915] Copy OK

Track 10

Filename E:\Z Audio\EAC\VA - Polskie Drogi Rocka\CD 2 - Drogi do miłości\10 - Lech Janerka - Tak tylko Ty.wav

Peak level 98.8 % Track quality 100.0 % Test CRC 7760785F Copy CRC 7760785F Accurately ripped (confidence 2) [75D07C28] Copy OK

Track 11

Filename E:\Z Audio\EAC\VA - Polskie Drogi Rocka\CD 2 - Drogi do miłości\11 - O.N.A - Niekochana.wav

Peak level 100.0 % Track quality 100.0 % Test CRC 9DEC407B Copy CRC 9DEC407B Accurately ripped (confidence 2) [384C78B1] Copy OK

Track 12

Filename E:\Z Audio\EAC\VA - Polskie Drogi Rocka\CD 2 - Drogi do miłości\12 - Rezerwat - Zaopiekuj się mną.wav

Peak level 100.0 % Track quality 99.9 % Test CRC D085A0EE Copy CRC D085A0EE Accurately ripped (confidence 2) [42C150F0] Copy OK

Track 13

Filename E:\Z Audio\EAC\VA - Polskie Drogi Rocka\CD 2 - Drogi do miłości\13 - Ewelina Flinta - Żałuję.wav

Peak level 94.2 % Track quality 100.0 % Test CRC 4688FA4A Copy CRC 4688FA4A Accurately ripped (confidence 2) [13B81585] Copy OK

Track 14

Filename E:\Z Audio\EAC\VA - Polskie Drogi Rocka\CD 2 - Drogi do miłości\14 - Plateau & Renata Przemyk - Nic nie pachnie jak Ty.wav

Peak level 98.9 % Track quality 99.9 % Test CRC CA3E74BE Copy CRC CA3E74BE Accurately ripped (confidence 2) [9271A315] Copy OK

Track 15

Filename E:\Z Audio\EAC\VA - Polskie Drogi Rocka\CD 2 - Drogi do miłości\15 - Myslovitz - Chłopcy.wav

Peak level 100.0 % Track quality 100.0 % Test CRC E1F709A9 Copy CRC E1F709A9 Accurately ripped (confidence 2) [D2990B5E] Copy OK

Track 16

Filename E:\Z Audio\EAC\VA - Polskie Drogi Rocka\CD 2 - Drogi do miłości\16 - Wilki - Son Of The Blue Sky.wav

Peak level 100.0 % Track quality 100.0 % Test CRC 382600EE Copy CRC 382600EE Accurately ripped (confidence 2) [D488387B] Copy OK

All tracks accurately ripped

No errors occurred

End of status report
Exact Audio Copy V0.99 prebeta 5 from 4. May 2009

EAC extraction logfile from 11. September 2010, 14:48

VA / Polskie Drogi Rocka CD3

Used drive : HL-DT-STDVDRAM GSA-4167B Adapter: 0 ID: 0

Read mode : SecureUtilize accurate stream : YesDefeat audio cache : YesMake use of C2 pointers : No

Read offset correction : 667Overread into Lead-In and Lead-Out : NoFill up missing offset samples with silence : YesDelete leading and trailing silent blocks : NoNull samples used in CRC calculations : YesUsed interface : Installed external ASPI interfaceGap handling : Appended to previous track

Used output format : User Defined EncoderSelected bitrate : 1024 kBit/sQuality : HighAdd ID3 tag : YesCommand line compressor : C:\Program Files\FLAC\flac.exeAdditional command line options : -8 -T "artist=%a" -T "title=%t" -T "album=%g" -T "date=%y" -T "tracknumber=%n" -T "genre=%m" %s

TOC of the extracted CD

Track | Start | Length | Start sector | End sector --------------------------------------------------------- 1 | 0:00.00 | 3:29.26 | 0 | 15700 2 | 3:29.26 | 4:18.19 | 15701 | 35069 3 | 7:47.45 | 7:33.35 | 35070 | 69079 4 | 15:21.05 | 4:12.47 | 69080 | 88026 5 | 19:33.52 | 3:24.72 | 88027 | 103398 6 | 22:58.49 | 5:02.09 | 103399 | 126057 7 | 28:00.58 | 5:00.00 | 126058 | 148557 8 | 33:00.58 | 4:14.04 | 148558 | 167611 9 | 37:14.62 | 4:00.34 | 167612 | 185645 10 | 41:15.21 | 4:16.29 | 185646 | 204874 11 | 45:31.50 | 2:34.52 | 204875 | 216476 12 | 48:06.27 | 3:24.10 | 216477 | 231786 13 | 51:30.37 | 3:18.64 | 231787 | 246700 14 | 54:49.26 | 3:32.54 | 246701 | 262654 15 | 58:22.05 | 4:36.23 | 262655 | 283377 16 | 62:58.28 | 3:33.51 | 283378 | 299403

Track 1

Filename E:\Z Audio\EAC\VA - Polskie Drogi Rocka\CD 3 - Drogi do muzyki XXI\01 - Yugoton - Malcziki.wav

Pre-gap length 0:00:02.00

Peak level 100.0 % Track quality 100.0 % Test CRC 56842C1A Copy CRC 56842C1A Accurately ripped (confidence 2) [B2815663] Copy OK

Track 2

Filename E:\Z Audio\EAC\VA - Polskie Drogi Rocka\CD 3 - Drogi do muzyki XXI\02 - Ptaky - Chroń to co masz.wav

Peak level 87.2 % Track quality 100.0 % Test CRC D1FCE9D8 Copy CRC D1FCE9D8 Accurately ripped (confidence 2) [0D59765C] Copy OK

Track 3

Filename E:\Z Audio\EAC\VA - Polskie Drogi Rocka\CD 3 - Drogi do muzyki XXI\03 - Makowiecki Band - Can't Get You Out Of My Head.wav

Peak level 90.8 % Track quality 100.0 % Test CRC D2D5B531 Copy CRC D2D5B531 Accurately ripped (confidence 2) [5246222A] Copy OK

Track 4

Filename E:\Z Audio\EAC\VA - Polskie Drogi Rocka\CD 3 - Drogi do muzyki XXI\04 - Lenny Valentino - Dom Nauki Wrażeń.wav

Peak level 68.2 % Track quality 100.0 % Test CRC 70A76193 Copy CRC 70A76193 Accurately ripped (confidence 2) [7846A4A1] Copy OK

Track 5

Filename E:\Z Audio\EAC\VA - Polskie Drogi Rocka\CD 3 - Drogi do muzyki XXI\05 - Negatyw - Amsterdam.wav

Peak level 100.0 % Track quality 100.0 % Test CRC 342F9547 Copy CRC 342F9547 Accurately ripped (confidence 2) [F18F600B] Copy OK

Track 6

Filename E:\Z Audio\EAC\VA - Polskie Drogi Rocka\CD 3 - Drogi do muzyki XXI\06 - Voo Voo - Człowiek wózków.wav

Peak level 99.1 % Track quality 100.0 % Test CRC 76205014 Copy CRC 76205014 Accurately ripped (confidence 2) [3368EAE0] Copy OK

Track 7

Filename E:\Z Audio\EAC\VA - Polskie Drogi Rocka\CD 3 - Drogi do muzyki XXI\07 - Atmosphere - Niewielki skrawek ziemi.wav

Peak level 100.0 % Track quality 100.0 % Test CRC 98A33868 Copy CRC 98A33868 Accurately ripped (confidence 2) [A7CD0F0E] Copy OK

Track 8

Filename E:\Z Audio\EAC\VA - Polskie Drogi Rocka\CD 3 - Drogi do muzyki XXI\08 - Fiolka - Głośny śmiech.wav

Peak level 99.8 % Track quality 100.0 % Test CRC 6EFAB3A2 Copy CRC 6EFAB3A2 Accurately ripped (confidence 2) [DC4EF28A] Copy OK

Track 9

Filename E:\Z Audio\EAC\VA - Polskie Drogi Rocka\CD 3 - Drogi do muzyki XXI\09 - Chylińska - Winna.wav

Peak level 99.4 % Track quality 100.0 % Test CRC A45009F2 Copy CRC A45009F2 Accurately ripped (confidence 2) [4B1F4BB9] Copy OK

Track 10

Filename E:\Z Audio\EAC\VA - Polskie Drogi Rocka\CD 3 - Drogi do muzyki XXI\10 - Piersi - Całuj mnie.wav

Peak level 100.0 % Track quality 100.0 % Test CRC CDD965D3 Copy CRC CDD965D3 Accurately ripped (confidence 2) [73E3A1C0] Copy OK

Track 11

Filename E:\Z Audio\EAC\VA - Polskie Drogi Rocka\CD 3 - Drogi do muzyki XXI\11 - Szwagierkolaska - U cioci na imieninach.wav

Peak level 94.4 % Track quality 100.0 % Test CRC 634A05A6 Copy CRC 634A05A6 Track not present in AccurateRip database Copy OK

Track 12

Filename E:\Z Audio\EAC\VA - Polskie Drogi Rocka\CD 3 - Drogi do muzyki XXI\12 - The Car Is On Fire - Oh Joe.wav

Peak level 99.6 % Track quality 100.0 % Test CRC F59129C4 Copy CRC F59129C4 Accurately ripped (confidence 2) [F55E7628] Copy OK

Track 13

Filename E:\Z Audio\EAC\VA - Polskie Drogi Rocka\CD 3 - Drogi do muzyki XXI\13 - T. Love - Banalny.wav

Peak level 98.8 % Track quality 100.0 % Test CRC 154F77A0 Copy CRC 154F77A0 Accurately ripped (confidence 2) [130D4A4D] Copy OK

Track 14

Filename E:\Z Audio\EAC\VA - Polskie Drogi Rocka\CD 3 - Drogi do muzyki XXI\14 - EM - Tramwaje jak komety.wav

Peak level 100.0 % Track quality 100.0 % Test CRC 431D4C69 Copy CRC 431D4C69 Accurately ripped (confidence 2) [5EA1E51F] Copy OK

Track 15

Filename E:\Z Audio\EAC\VA - Polskie Drogi Rocka\CD 3 - Drogi do muzyki XXI\15 - Pustki - Słabość chwilowa.wav

Peak level 98.5 % Track quality 100.0 % Test CRC 9497C107 Copy CRC 9497C107 Accurately ripped (confidence 2) [A85C3989] Copy OK

Track 16

Filename E:\Z Audio\EAC\VA - Polskie Drogi Rocka\CD 3 - Drogi do muzyki XXI\16 - Muchy - Galanteria.wav

Peak level 100.0 % Track quality 100.0 % Test CRC 4B375C38 Copy CRC 4B375C38 Accurately ripped (confidence 2) [02117A51] Copy OK

15 track(s) accurately ripped 1 track(s) not present in the AccurateRip database

Some tracks could not be verified as accurate

No errors occurred

End of status report
REM GENRE Rock
REM DATE 2008
REM DISCID E30F4E10
REM COMMENT "ExactAudioCopy v0.99pb5"
PERFORMER "VA"
TITLE "Polskie Drogi Rocka CD1"
FILE "01 - Lady Pank - Mniej niż zero.wav" WAVE
TRACK 01 AUDIO
TITLE "Mniej niż zero"
PERFORMER "Lady Pank"
INDEX 01 00:00:00
FILE "02 - Republika - Mamona.wav" WAVE
TRACK 02 AUDIO
TITLE "Mamona"
PERFORMER "Republika"
INDEX 01 00:00:00
FILE "03 - Maanam - Lipstic on the glass.wav" WAVE
TRACK 03 AUDIO
TITLE "Lipstic on the glass"
PERFORMER "Maanam"
INDEX 01 00:00:00
FILE "04 - Perfect - Autobiografia.wav" WAVE
TRACK 04 AUDIO
TITLE "Autobiografia"
PERFORMER "Perfect"
INDEX 01 00:00:00
FILE "05 - TSA - 51.wav" WAVE
TRACK 05 AUDIO
TITLE "51"
PERFORMER "TSA"
INDEX 01 00:00:00
FILE "06 - Mr. Zoob - Mój jest ten kawałek podłogi.wav" WAVE
TRACK 06 AUDIO
TITLE "Mój jest ten kawałek podłogi"
PERFORMER "Mr. Zoob"
INDEX 01 00:00:00
FILE "07 - Kult - Baranek.wav" WAVE
TRACK 07 AUDIO
TITLE "Baranek"
PERFORMER "Kult"
INDEX 01 00:00:00
FILE "08 - Brygada Kryzys - Przestań śnić.wav" WAVE
TRACK 08 AUDIO
TITLE "Przestań śnić "
PERFORMER "Brygada Kryzys"
INDEX 01 00:00:00
FILE "09 - Tilt - Mówię ci, że.wav" WAVE
TRACK 09 AUDIO
TITLE "Mówię ci, że"
PERFORMER "Tilt"
INDEX 01 00:00:00
FILE "10 - Kobranocka - Hipisówka.wav" WAVE
TRACK 10 AUDIO
TITLE "Hipisówka"
PERFORMER "Kobranocka"
INDEX 01 00:00:00
FILE "11 - Pidżama Porno - Twoja generacja.wav" WAVE
TRACK 11 AUDIO
TITLE "Twoja generacja"
PERFORMER "Pidżama Porno"
INDEX 01 00:00:00
FILE "12 - Blade Loki - No pasaran.wav" WAVE
TRACK 12 AUDIO
TITLE "No pasaran"
PERFORMER "Blade Loki"
INDEX 01 00:00:00
FILE "13 - Myslovitz - Zgon.wav" WAVE
TRACK 13 AUDIO
TITLE "Zgon"
PERFORMER "Myslovitz"
INDEX 01 00:00:00
FILE "14 - Renata Przemyk - Własny pokój.wav" WAVE
TRACK 14 AUDIO
TITLE "Własny pokój"
PERFORMER "Renata Przemyk"
INDEX 01 00:00:00
FILE "15 - Pudelsi - Wolność słowa.wav" WAVE
TRACK 15 AUDIO
TITLE "Wolność słowa"
PERFORMER "Pudelsi"
INDEX 01 00:00:00
FILE "16 - Cool Kifs of Death - Spaliny.wav" WAVE
TRACK 16 AUDIO
TITLE "Spaliny"
PERFORMER "Cool Kifs of Death"
INDEX 01 00:00:00
REM GENRE Rock
REM DATE 2008
REM DISCID F2105110
REM COMMENT "ExactAudioCopy v0.99pb5"
PERFORMER "VA"
TITLE "Polskie Drogi Rocka CD2"
FILE "01 - Golden Life - 24.11.94.wav" WAVE
TRACK 01 AUDIO
TITLE "24.11.94"
PERFORMER "Golden Life"
INDEX 01 00:00:00
FILE "02 - O.N.A - Kiedy powiem sobie dość.wav" WAVE
TRACK 02 AUDIO
TITLE "Kiedy powiem sobie dość "
PERFORMER "O.N.A"
INDEX 01 00:00:00
FILE "03 - De Mono - Moje miasto nocą.wav" WAVE
TRACK 03 AUDIO
TITLE "Moje miasto nocą "
PERFORMER "De Mono"
INDEX 01 00:00:00
FILE "04 - Human - Polski.wav" WAVE
TRACK 04 AUDIO
TITLE "Polski "
PERFORMER "Human"
INDEX 01 00:00:00
FILE "05 - Mafia - Ja.wav" WAVE
TRACK 05 AUDIO
TITLE "Ja "
PERFORMER "Mafia"
INDEX 01 00:00:00
FILE "06 - Robert Gawliński - Trzy noce z deszczem.wav" WAVE
TRACK 06 AUDIO
TITLE "Trzy noce z deszczem "
PERFORMER "Robert Gawliński"
INDEX 01 00:00:00
FILE "07 - Marcin Rozynek - Siłacz.wav" WAVE
TRACK 07 AUDIO
TITLE "Siłacz "
PERFORMER "Marcin Rozynek"
INDEX 01 00:00:00
FILE "08 - Chłopcy z Placu Broni - Kocham Cię.wav" WAVE
TRACK 08 AUDIO
TITLE "Kocham Cię "
PERFORMER "Chłopcy z Placu Broni"
INDEX 01 00:00:00
FILE "09 - Kobranocka - Kocham Cię jak Irlandię.wav" WAVE
TRACK 09 AUDIO
TITLE "Kocham Cię jak Irlandię "
PERFORMER "Kobranocka"
INDEX 01 00:00:00
FILE "10 - Lech Janerka - Tak tylko Ty.wav" WAVE
TRACK 10 AUDIO
TITLE "Tak tylko Ty "
PERFORMER "Lech Janerka"
INDEX 01 00:00:00
FILE "11 - O.N.A - Niekochana.wav" WAVE
TRACK 11 AUDIO
TITLE "Niekochana "
PERFORMER "O.N.A"
INDEX 01 00:00:00
FILE "12 - Rezerwat - Zaopiekuj się mną.wav" WAVE
TRACK 12 AUDIO
TITLE "Zaopiekuj się mną "
PERFORMER "Rezerwat"
INDEX 01 00:00:00
FILE "13 - Ewelina Flinta - Żałuję.wav" WAVE
TRACK 13 AUDIO
TITLE "Żałuję"
PERFORMER "Ewelina Flinta"
INDEX 01 00:00:00
FILE "14 - Plateau & Renata Przemyk - Nic nie pachnie jak Ty.wav" WAVE
TRACK 14 AUDIO
TITLE "Nic nie pachnie jak Ty "
PERFORMER "Plateau & Renata Przemyk"
INDEX 01 00:00:00
FILE "15 - Myslovitz - Chłopcy.wav" WAVE
TRACK 15 AUDIO
TITLE "Chłopcy "
PERFORMER "Myslovitz"
INDEX 01 00:00:00
FILE "16 - Wilki - Son Of The Blue Sky.wav" WAVE
TRACK 16 AUDIO
TITLE "Son Of The Blue Sky"
PERFORMER "Wilki"
INDEX 01 00:00:00
REM GENRE Rock
REM DATE 2008
REM DISCID EB0F9810
REM COMMENT "ExactAudioCopy v0.99pb5"
PERFORMER "VA"
TITLE "Polskie Drogi Rocka CD3"
FILE "01 - Yugoton - Malcziki.wav" WAVE
TRACK 01 AUDIO
TITLE "Malcziki "
PERFORMER "Yugoton"
INDEX 01 00:00:00
FILE "02 - Ptaky - Chroń to co masz.wav" WAVE
TRACK 02 AUDIO
TITLE "Chroń to co masz "
PERFORMER "Ptaky"
INDEX 01 00:00:00
FILE "03 - Makowiecki Band - Can't Get You Out Of My Head.wav" WAVE
TRACK 03 AUDIO
TITLE "Can't Get You Out Of My Head "
PERFORMER "Makowiecki Band"
INDEX 01 00:00:00
FILE "04 - Lenny Valentino - Dom Nauki Wrażeń.wav" WAVE
TRACK 04 AUDIO
TITLE "Dom Nauki Wrażeń "
PERFORMER "Lenny Valentino"
INDEX 01 00:00:00
FILE "05 - Negatyw - Amsterdam.wav" WAVE
TRACK 05 AUDIO
TITLE "Amsterdam "
PERFORMER "Negatyw"
INDEX 01 00:00:00
FILE "06 - Voo Voo - Człowiek wózków.wav" WAVE
TRACK 06 AUDIO
TITLE "Człowiek wózków "
PERFORMER "Voo Voo"
INDEX 01 00:00:00
FILE "07 - Atmosphere - Niewielki skrawek ziemi.wav" WAVE
TRACK 07 AUDIO
TITLE "Niewielki skrawek ziemi "
PERFORMER "Atmosphere"
INDEX 01 00:00:00
FILE "08 - Fiolka - Głośny śmiech.wav" WAVE
TRACK 08 AUDIO
TITLE "Głośny śmiech "
PERFORMER "Fiolka"
INDEX 01 00:00:00
FILE "09 - Chylińska - Winna.wav" WAVE
TRACK 09 AUDIO
TITLE "Winna "
PERFORMER "Chylińska"
INDEX 01 00:00:00
FILE "10 - Piersi - Całuj mnie.wav" WAVE
TRACK 10 AUDIO
TITLE "Całuj mnie "
PERFORMER "Piersi"
INDEX 01 00:00:00
FILE "11 - Szwagierkolaska - U cioci na imieninach.wav" WAVE
TRACK 11 AUDIO
TITLE "U cioci na imieninach "
PERFORMER "Szwagierkolaska"
INDEX 01 00:00:00
FILE "12 - The Car Is On Fire - Oh Joe.wav" WAVE
TRACK 12 AUDIO
TITLE "Oh Joe "
PERFORMER "The Car Is On Fire"
INDEX 01 00:00:00
FILE "13 - T. Love - Banalny.wav" WAVE
TRACK 13 AUDIO
TITLE "Banalny "
PERFORMER "T. Love"
INDEX 01 00:00:00
FILE "14 - EM - Tramwaje jak komety.wav" WAVE
TRACK 14 AUDIO
TITLE "Tramwaje jak komety "
PERFORMER "EM"
INDEX 01 00:00:00
FILE "15 - Pustki - Słabość chwilowa.wav" WAVE
TRACK 15 AUDIO
TITLE "Słabość chwilowa "
PERFORMER "Pustki"
INDEX 01 00:00:00
FILE "16 - Muchy - Galanteria.wav" WAVE
TRACK 16 AUDIO
TITLE "Galanteria "
PERFORMER "Muchy "
INDEX 01 00:00:00
Торрент перезалит: добавлены рабочие, пригодные для прожига CD, *.cue файлы

Трекер:  [ 14-Янв-2013 13:03 ]

  

Скачать .torrent

Размер .torrent файла 21 KB


Размер: 1.38 GB
Хэш (hash) релиза: 09ff824be6556a1a6a559cbd474edf1f8d09d237

Торренты, похожие на VA - Polskie Drogi Rocka - 2008, FLAC скачать торрент

Форум Название Автор Размер S L Добавлен
Зарубежный Rock ·· (Rock) VA - Polskie Drogi Rocka - 2008, FLAC (tracks), lossless Galfimbul 14866806511.38 GB 0 0 1355110260

06:31

10-Дек-12

Еще никто не оставлял запись к записи скачать торрент VA - Polskie Drogi Rocka - 2008, FLAC . Будь первым!

!Обратная связь