Скачать через торрент музыку Radio Moscow - 3 & 3 Quarters - 2012, FLAC бесплатно без регистрации torrent

Если у вас наблюдаются проблемы со скриншотами, переходом по ссылками, скачиванием торрентов - проблемы в блокировщике рекламы AdBlock. #хорошегоДня!


Статистика раздачи
Размер:  214 MB   |    Зарегистрирован:  4 года 10 месяцев   |    .torrent скачан:  35 раз   |   
Раздают:  1  
   
Загрузка...
 
Автор Сообщение

Galfimbul

avatar Galfimbul


Radio Moscow - 3 & 3 Quarters

Жанр: Psychedelic Blues Rock, Garage Rock, Hard Rock
Страна-производитель диска: USA
Год издания диска: 2012
Издатель (лейбл): Alive Records
Страна: USA
Аудиокодек: FLAC (*.flac)
Тип рипа: tracks
Битрейт аудио: lossless
Продолжительность: 00:32:31
Источник (релизер): sddd
Наличие сканов в содержимом раздачи:
Треклист:

01. You're Doing It to Me 02:43
02. The Look on My Face 02:35
03. Here I Come 03:11
04. No, No, Mister!! 03:12
05. We're All Troubled 02:36
06. She's Mine 02:36
07. About to Crash 02:23
08. The Stomp! 02:21
09. On Your Own 03:31
10. Confusion 01:59
11. Dog Show 02:00
12. Time Bomb (Middle the Room) 03:24

All songs are written and composed by Parker Griggs.
Recorded and produced in 2003 by frontman Parker Griggs before the formation of the band.
Exact Audio Copy V1.0 beta 3 from 29. August 2011

EAC extraction logfile from 14. December 2012, 10:22

Radio Moscow / 3 & 3 Quarters

Used drive : ASUS DRW-1612BL Adapter: 1 ID: 0

Read mode : SecureUtilize accurate stream : YesDefeat audio cache : YesMake use of C2 pointers : No

Read offset correction : 6Overread into Lead-In and Lead-Out : NoFill up missing offset samples with silence : YesDelete leading and trailing silent blocks : NoNull samples used in CRC calculations : YesUsed interface : Native Win32 interface for Win NT & 2000Gap handling : Appended to previous track

Used output format : User Defined EncoderSelected bitrate : 128 kBit/sQuality : HighAdd ID3 tag : YesCommand line compressor : C:\Program Files (x86)\Exact Audio Copy\Flac\flac.exeAdditional command line options : -8 -V -T "ARTIST=%artist%" -T "TITLE=%title%" -T "ALBUM=%albumtitle%" -T "DATE=%year%" -T "TRACKNUMBER=%tracknr%" -T "GENRE=%genre%" -T "PERFORMER=%albuminterpret%" -T "COMPOSER=%composer%" %haslyrics%--tag-from-file=LYRICS="%lyricsfile%"%haslyrics% -T "ALBUMARTIST=%albumartist%" -T "DISCNUMBER=%cdnumber%" -T "TOTALDISCS=%totalcds%" -T "TOTALTRACKS=%numtracks%" -T "COMMENT=%comment%" %source% -o %dest%

TOC of the extracted CD

Track | Start | Length | Start sector | End sector --------------------------------------------------------- 1 | 0:00.00 | 2:42.63 | 0 | 12212 2 | 2:42.63 | 2:34.57 | 12213 | 23819 3 | 5:17.45 | 3:10.45 | 23820 | 38114 4 | 8:28.15 | 3:11.71 | 38115 | 52510 5 | 11:40.11 | 2:36.03 | 52511 | 64213 6 | 14:16.14 | 2:35.48 | 64214 | 75886 7 | 16:51.62 | 2:22.65 | 75887 | 86601 8 | 19:14.52 | 2:21.31 | 86602 | 97207 9 | 21:36.08 | 3:30.73 | 97208 | 113030 10 | 25:07.06 | 1:59.19 | 113031 | 121974 11 | 27:06.25 | 2:00.27 | 121975 | 131001 12 | 29:06.52 | 3:24.31 | 131002 | 146332

Track 1

Filename O:\EAC\Radio Moscow - 3 & 3 Quarters\01 You're Doing it to me.wav

Pre-gap length 0:00:02.00

Peak level 96.5 % Extraction speed 4.6 X Track quality 100.0 % Test CRC FF1EEE39 Copy CRC FF1EEE39 Copy OK

Track 2

Filename O:\EAC\Radio Moscow - 3 & 3 Quarters\02 The Look on my Face.wav

Pre-gap length 0:00:00.88

Peak level 96.5 % Extraction speed 5.0 X Track quality 100.0 % Test CRC 4C2461F9 Copy CRC 4C2461F9 Copy OK

Track 3

Filename O:\EAC\Radio Moscow - 3 & 3 Quarters\03 Here I Come.wav

Pre-gap length 0:00:01.37

Peak level 96.5 % Extraction speed 5.5 X Track quality 100.0 % Test CRC 038A767C Copy CRC 038A767C Copy OK

Track 4

Filename O:\EAC\Radio Moscow - 3 & 3 Quarters\04 NO, No, Mister!!.wav

Pre-gap length 0:00:01.98

Peak level 96.5 % Extraction speed 6.0 X Track quality 100.0 % Test CRC BCA67D72 Copy CRC BCA67D72 Copy OK

Track 5

Filename O:\EAC\Radio Moscow - 3 & 3 Quarters\05 Were All Troubled.wav

Pre-gap length 0:00:00.80

Peak level 96.5 % Extraction speed 4.3 X Track quality 99.9 % Test CRC A86C05AC Copy CRC A86C05AC Copy OK

Track 6

Filename O:\EAC\Radio Moscow - 3 & 3 Quarters\06 She's Mine.wav

Pre-gap length 0:00:00.82

Peak level 96.5 % Extraction speed 6.2 X Track quality 100.0 % Test CRC DC5F9703 Copy CRC DC5F9703 Copy OK

Track 7

Filename O:\EAC\Radio Moscow - 3 & 3 Quarters\07 About To Crash.wav

Pre-gap length 0:00:00.80

Peak level 96.5 % Extraction speed 6.4 X Track quality 100.0 % Test CRC 4A4850C4 Copy CRC 4A4850C4 Copy OK

Track 8

Filename O:\EAC\Radio Moscow - 3 & 3 Quarters\08 the STOMP!.wav

Pre-gap length 0:00:00.64

Peak level 96.5 % Extraction speed 4.6 X Track quality 99.9 % Test CRC 689AD745 Copy CRC 689AD745 Copy OK

Track 9

Filename O:\EAC\Radio Moscow - 3 & 3 Quarters\09 On Your Own.wav

Pre-gap length 0:00:01.01

Peak level 96.5 % Extraction speed 7.4 X Track quality 100.0 % Test CRC 2DFCEA78 Copy CRC 2DFCEA78 Copy OK

Track 10

Filename O:\EAC\Radio Moscow - 3 & 3 Quarters\10 Confusion.wav

Pre-gap length 0:00:00.97

Peak level 96.5 % Extraction speed 6.9 X Track quality 100.0 % Test CRC 32F9E37C Copy CRC 32F9E37C Copy OK

Track 11

Filename O:\EAC\Radio Moscow - 3 & 3 Quarters\11 Dog Show.wav

Pre-gap length 0:00:00.76

Peak level 96.5 % Extraction speed 6.9 X Track quality 100.0 % Test CRC 4F876203 Copy CRC 4F876203 Copy OK

Track 12

Filename O:\EAC\Radio Moscow - 3 & 3 Quarters\12 Timebomb (middle the room).wav

Pre-gap length 0:00:00.94

Peak level 96.5 % Extraction speed 8.0 X Track quality 100.0 % Test CRC A82063B3 Copy CRC A82063B3 Copy OK

No errors occurred

End of status report

==== Log checksum BC5A8134C07F630458579D6DFCE6C164104B912E75F5950FE19DC16FAD2C4BCD ====
Jncencndetn
-----------------------

DON'T MODIFY THIS FILE

-----------------------

PERFORMER: auCDtect Task Manager, ver. 1.5.1RC4 build 1.5.1.5Copyright (c) 2008-2010 y-soft. All rights reservedhttp://y-soft.org

ANALYZER: auCDtect: CD records authenticity detector, version 0.8.2Copyright (c) 2004 Oleg Berngardt. All rights reserved.Copyright (c) 2004 Alexander Djourik. All rights reserved.

FILE: 12 Timebomb (middle the room).flac Size: 20839300 Hash: 5175C84B059B8ECD3A0AC391BECB794E Accuracy: -m0 Conclusion: CDDA 100% Signature: 3C4624C5450EFCFC4EB9D937E2307949C50EC02DFILE: 11 Dog Show.flac Size: 14171477 Hash: 238AEF80683FB648A5F90A3765C68E26 Accuracy: -m0 Conclusion: CDDA 100% Signature: 8C13AF2B3C92BA6D9EE29C57781F5B45C5149705FILE: 10 Confusion.flac Size: 13582055 Hash: 2E55443076B55D13106924C5AD7C0105 Accuracy: -m0 Conclusion: CDDA 99% Signature: F3A53420AF5D4A95C44ED248FFBC9415418DBD02FILE: 09 On Your Own.flac Size: 23710292 Hash: 2483E9B6D03F826514451FF1A581B1E6 Accuracy: -m0 Conclusion: CDDA 100% Signature: E513B8F80A3AC01921125BAF4BDE211CECF63E41FILE: 08 the STOMP!.flac Size: 16148159 Hash: 35C892A4833AB0DC11EB1456894322A3 Accuracy: -m0 Conclusion: CDDA 100% Signature: 744281AE0F021529B58D3E9129BFFD6F548104EFFILE: 07 About To Crash.flac Size: 16835353 Hash: 17DE1A4123E60F85AE1A7E7E8BA3E4EF Accuracy: -m0 Conclusion: CDDA 100% Signature: 345F70C409CC166021314FD6360C3C2908FF9564FILE: 06 She's Mine.flac Size: 17811785 Hash: 67237E5E3D507E8A7EC99168F4572E29 Accuracy: -m0 Conclusion: CDDA 100% Signature: 0F8472894DDCD6109ACF15EF853E353D6ECFFD21FILE: 05 Were All Troubled.flac Size: 17924216 Hash: CCDC06131131A598917DC60C7A702B9E Accuracy: -m0 Conclusion: CDDA 100% Signature: E85FC8407E1B4C0D5DA5B2FC85410B059C486F8CFILE: 04 NO, No, Mister!!.flac Size: 22943095 Hash: 77D5602BD6F3112161876A4C0D38DCA0 Accuracy: -m0 Conclusion: CDDA 100% Signature: C19923A4BFA52A721DF9D7A4D6733C9F432F69A6FILE: 03 Here I Come.flac Size: 22781570 Hash: ECB99EA8EA6F28CE785A0C2C6527F03D Accuracy: -m0 Conclusion: CDDA 100% Signature: B6A8E82085B18658D884455C5B21BAEC4A796AA3FILE: 02 The Look on my Face.flac Size: 17729981 Hash: 7AC0931317C6405EF2B31F3A9CDEAC5D Accuracy: -m0 Conclusion: CDDA 100% Signature: F5AB155457234F6B3CAEEAFBD6ECA74751B90C31FILE: 01 You're Doing it to me.flac Size: 19502364 Hash: 3285B6ECE2AF23E9A9C7CEF65B0057E8 Accuracy: -m0 Conclusion: CDDA 99% Signature: 37B6CB43BCE8302783D17CDFB4A65780AF06110A
Доп. информация:
Parker Griggs – vocals, guitar, bass, drums, organ, percussion, production, liner notes
Dave Cooley – mastering
This is Radio Moscow s previously unreleased debut album. Recorded entirely by Parker Griggs (he plays all the instruments) when he was only 17-18, this is garage music reminiscent of the Nuggets and Pebbles compilations, with a dash of Killed By Death dropped into the mix; it s where it all started for the six string boy wonder. When I was 17, I started getting into a lot of underground 60 s garage and psych rock and that s what really inspired me to make this album. My first big influences around this time were The Seeds, Chocolate Watchband, the Nuggets and Pebbles comps, The Sonics, Music Machine, Shadows of Knight, Pretty Things, and a lot of other obscure garage bands that had just released a song or two. I had been doing the punk thing as a teen and when I found this old stuff I just didn t wanna go back. These songs were recorded in my basement in 2003/early 2004 when I was an 18 year old, fresh outta high school. I began putting these together on the side in 2003 while I was becoming tired of writing and playing drums in the punk/hardcore style for my high school band. We did one small tour the summer after I graduated high school, even though I was growing bored of the style. While on the road, the guitarist and I decided that we should cancel the last half and move on to other things. I then returned to Iowa, went straight to the basement, and started making this album. I hope you enjoy it. Parker Griggs.


Трекер:  [ 14-Янв-2013 13:05 ]

  

Скачать .torrent

Размер .torrent файла 18 KB


Размер: 214 MB
Хэш (hash) релиза: 9dce4d28177aa5dde17fb29473b84f85f8feed47

Еще никто не оставлял запись к записи скачать торрент Radio Moscow - 3 & 3 Quarters - 2012, FLAC . Будь первым!

!Обратная связь