Скачать через торрент музыку The Rolling Stones - Grrr! - 2012, FLAC бесплатно без регистрации torrent

Если у вас наблюдаются проблемы со скриншотами, переходом по ссылками, скачиванием торрентов - проблемы в блокировщике рекламы AdBlock. #хорошегоДня!


Статистика раздачи
Размер:  1.13 GB   |    Зарегистрирован:  4 года 10 месяцев   |    .torrent скачан:  37 раз   |   
Раздают:  1  
   
Загрузка...
 
Автор Сообщение

Galfimbul

avatar Galfimbul


The Rolling Stones / Grrr!

Жанр: Rock/Rock & Roll
Страна-производитель диска: UK & Europe
Год издания: 2012
Издатель (лейбл): Polydor
Номер по каталогу: 3710914
Страна: UK & Europe
Аудиокодек: FLAC (*.flac)
Тип рипа: image+.cue
Битрейт аудио: lossless
Продолжительность: 187:16 min
Источник (релизер): Фирменный диск
Наличие сканов в содержимом раздачи: да
Треклист:

CD1
01. Come On (1:50)
02. Not Fade Away (1:49)
03. It's All Over Now (3:27)
04. Little Red Rooster (3:06)
05. The Last Time (3:42)
06. (I Can't Get No) Satisfaction (3:44)
07. Time Is On My Side (3:01)
08. Get Off Of My Cloud (2:56)
09. Heart Of The Stone (2:51)
10. 19th Nervous Breakdown (3:59)
11. As Tears Go By (2:47)
12. Paint It, Black (3:24)
13. Under My Thumb (3:43)
14. Have You Seen Your Mother, Baby, Standing In The Shadow? (2:38)
15. Ruby Tuesday (3:15)
16. Let's Spend The Night Together (3:39)
17. We Love You (4:23)

CD2
01. Jumpin' Jack Flash (3:44)
02. Honky Tonk Women (3:02)
03. Sympathy For The Devil (6:20)
04. You Can't Always Get What You Want (4:51)
05. Gimme Shelter (4:33)
06. Street Fighting Man (3:16)
07. Wild Horses (5:45)
08. She's A Rainbow (4:13)
09. Brown Sugar (3:50)
10. Happy (3:06)
11. Tumbling Dice (3:47)
12. Angie (4:33)
13. Rocks Off (4:33)
14. Doo Doo Doo Doo Doo (Heartbreaker) (3:28)
15. It's Only Rock 'N' Roll (4:11)
16. Fool To Cry (4:07)

CD3
01. Miss You (3:35)
02. Respectable (3:09)
03. Beast Of Burden (3:30)
04. Emotional Rescue (3:43)
05. Start Me Up (3:33)
06. Waiting On A Friend (4:35)
07. Undercover Of The Night (4:14)
08. She Was Hot (4:42)
09. Streets Of Love (5:09)
10. Harlem Shuffle (3:24)
11. Mixed Emotions (4:00)
12. Highwire (3:44)
13. Love Is Strong (3:48)
14. Anybody Seen My Baby? (4:07)
15. Don't Stop (3:30)
16. Doom And Gloom (3:59)
17. One More Shot (3:04)
Exact Audio Copy V1.0 beta 3 from 29. August 2011

EAC extraction logfile from 15. December 2012, 8:11

The Rolling Stones / Grrr!

Used drive : NECVMWarVMware IDE CDR10 Adapter: 1 ID: 0

Read mode : SecureUtilize accurate stream : YesDefeat audio cache : YesMake use of C2 pointers : No

Read offset correction : 667Overread into Lead-In and Lead-Out : NoFill up missing offset samples with silence : YesDelete leading and trailing silent blocks : NoNull samples used in CRC calculations : YesUsed interface : Native Win32 interface for Win NT & 2000

Used output format : User Defined EncoderSelected bitrate : 896 kBit/sQuality : HighAdd ID3 tag : NoCommand line compressor : C:\Exact Audio Copy\Flac\flac.exeAdditional command line options : --best -V -T "ALBUM=%albumtitle%" -T "DATE=%year%" -T "GENRE=%genre%" -T "ENCODER=DJoker" %source% -o %dest%

TOC of the extracted CD

Track | Start | Length | Start sector | End sector --------------------------------------------------------- 1 | 0:00.00 | 1:50.06 | 0 | 8255 2 | 1:50.06 | 1:48.46 | 8256 | 16401 3 | 3:38.52 | 3:26.74 | 16402 | 31925 4 | 7:05.51 | 3:05.45 | 31926 | 45845 5 | 10:11.21 | 3:41.64 | 45846 | 62484 6 | 13:53.10 | 3:44.35 | 62485 | 79319 7 | 17:37.45 | 3:00.40 | 79320 | 92859 8 | 20:38.10 | 2:56.14 | 92860 | 106073 9 | 23:34.24 | 2:50.61 | 106074 | 118884 10 | 26:25.10 | 3:59.32 | 118885 | 136841 11 | 30:24.42 | 2:46.57 | 136842 | 149348 12 | 33:11.24 | 3:23.56 | 149349 | 164629 13 | 36:35.05 | 3:42.63 | 164630 | 181342 14 | 40:17.68 | 2:37.43 | 181343 | 193160 15 | 42:55.36 | 3:15.31 | 193161 | 207816 16 | 46:10.67 | 3:39.04 | 207817 | 224245 17 | 49:49.71 | 4:22.49 | 224246 | 243944

Range status and errors

Selected range

Filename C:\Music\The Rolling Stones\2012 - Grrr!\The Rolling Stones - Grrr! - cd1.wav

Peak level 99.4 % Extraction speed 1.8 X Range quality 99.9 % Test CRC 9E88DD9C Copy CRC 9E88DD9C Copy OK

No errors occurred

AccurateRip summary

Track 1 not present in databaseTrack 2 not present in databaseTrack 3 not present in databaseTrack 4 not present in databaseTrack 5 not present in databaseTrack 6 not present in databaseTrack 7 not present in databaseTrack 8 not present in databaseTrack 9 not present in databaseTrack 10 not present in databaseTrack 11 not present in databaseTrack 12 not present in databaseTrack 13 not present in databaseTrack 14 not present in databaseTrack 15 not present in databaseTrack 16 not present in databaseTrack 17 not present in database

None of the tracks are present in the AccurateRip database

End of status report

==== Log checksum 7D59430C280C1843D96034946F7C702AB0F7C07DF3C69907371280946119DE44 ====
Exact Audio Copy V1.0 beta 3 from 29. August 2011

EAC extraction logfile from 15. December 2012, 9:23

The Rolling Stones / Grrr!

Used drive : NECVMWarVMware IDE CDR10 Adapter: 1 ID: 0

Read mode : SecureUtilize accurate stream : YesDefeat audio cache : YesMake use of C2 pointers : No

Read offset correction : 667Overread into Lead-In and Lead-Out : NoFill up missing offset samples with silence : YesDelete leading and trailing silent blocks : NoNull samples used in CRC calculations : YesUsed interface : Native Win32 interface for Win NT & 2000

Used output format : User Defined EncoderSelected bitrate : 896 kBit/sQuality : HighAdd ID3 tag : NoCommand line compressor : C:\Exact Audio Copy\Flac\flac.exeAdditional command line options : --best -V -T "ALBUM=%albumtitle%" -T "DATE=%year%" -T "GENRE=%genre%" -T "ENCODER=DJoker" %source% -o %dest%

TOC of the extracted CD

Track | Start | Length | Start sector | End sector --------------------------------------------------------- 1 | 0:00.00 | 3:43.73 | 0 | 16797 2 | 3:43.73 | 3:01.44 | 16798 | 30416 3 | 6:45.42 | 6:19.40 | 30417 | 58881 4 | 13:05.07 | 4:51.07 | 58882 | 80713 5 | 17:56.14 | 4:33.18 | 80714 | 101206 6 | 22:29.32 | 3:16.02 | 101207 | 115908 7 | 25:45.34 | 5:45.18 | 115909 | 141801 8 | 31:30.52 | 4:13.16 | 141802 | 160792 9 | 35:43.68 | 3:49.60 | 160793 | 178027 10 | 39:33.53 | 3:06.01 | 178028 | 191978 11 | 42:39.54 | 3:46.53 | 191979 | 208981 12 | 46:26.32 | 4:32.60 | 208982 | 229441 13 | 50:59.17 | 4:33.03 | 229442 | 249919 14 | 55:32.20 | 3:27.38 | 249920 | 265482 15 | 58:59.58 | 4:11.18 | 265483 | 284325 16 | 63:11.01 | 4:07.26 | 284326 | 302876

Range status and errors

Selected range

Filename C:\Music\The Rolling Stones\2012 - Grrr!\CD2\The Rolling Stones - Grrr! - cd2.wav

Peak level 100.0 % Extraction speed 2.1 X Range quality 100.0 % Test CRC E08DCB06 Copy CRC E08DCB06 Copy OK

No errors occurred

AccurateRip summary

Track 1 accurately ripped (confidence 1) [55C6AA64] (AR v1)Track 2 accurately ripped (confidence 1) [1E9E76C3] (AR v1)Track 3 accurately ripped (confidence 1) [F35C8A80] (AR v1)Track 4 accurately ripped (confidence 1) [43F60A77] (AR v1)Track 5 accurately ripped (confidence 1) [844AAAC9] (AR v1)Track 6 accurately ripped (confidence 1) [B9A71256] (AR v1)Track 7 accurately ripped (confidence 1) [32D44D1E] (AR v1)Track 8 accurately ripped (confidence 1) [4BDFA0F2] (AR v1)Track 9 accurately ripped (confidence 1) [63736394] (AR v1)Track 10 accurately ripped (confidence 1) [CD5AFC74] (AR v1)Track 11 accurately ripped (confidence 1) [9AFA3892] (AR v1)Track 12 accurately ripped (confidence 1) [0F5E1396] (AR v1)Track 13 accurately ripped (confidence 1) [DBF787AC] (AR v1)Track 14 accurately ripped (confidence 1) [CEEA0C98] (AR v1)Track 15 accurately ripped (confidence 1) [32673AFA] (AR v1)Track 16 accurately ripped (confidence 1) [8003943A] (AR v1)

All tracks accurately ripped

End of status report

==== Log checksum 9601D7127B0DA1771DA220CE2E4805A91CFCA81CD3A52277CF6355A02DFDFF28 ====
Exact Audio Copy V1.0 beta 3 from 29. August 2011

EAC extraction logfile from 15. December 2012, 11:10

The Rolling Stones / Grrr!

Used drive : NECVMWarVMware IDE CDR10 Adapter: 1 ID: 0

Read mode : SecureUtilize accurate stream : YesDefeat audio cache : YesMake use of C2 pointers : No

Read offset correction : 667Overread into Lead-In and Lead-Out : NoFill up missing offset samples with silence : YesDelete leading and trailing silent blocks : NoNull samples used in CRC calculations : YesUsed interface : Native Win32 interface for Win NT & 2000

Used output format : User Defined EncoderSelected bitrate : 896 kBit/sQuality : HighAdd ID3 tag : NoCommand line compressor : C:\Exact Audio Copy\Flac\flac.exeAdditional command line options : --best -V -T "ALBUM=%albumtitle%" -T "DATE=%year%" -T "GENRE=%genre%" -T "ENCODER=DJoker" %source% -o %dest%

TOC of the extracted CD

Track | Start | Length | Start sector | End sector --------------------------------------------------------- 1 | 0:00.00 | 3:34.67 | 0 | 16116 2 | 3:34.67 | 3:09.00 | 16117 | 30291 3 | 6:43.67 | 3:30.03 | 30292 | 46044 4 | 10:13.70 | 3:43.02 | 46045 | 62771 5 | 13:56.72 | 3:32.72 | 62772 | 78743 6 | 17:29.69 | 4:35.32 | 78744 | 99400 7 | 22:05.26 | 4:13.49 | 99401 | 118424 8 | 26:19.00 | 4:41.44 | 118425 | 139543 9 | 31:00.44 | 5:09.32 | 139544 | 162750 10 | 36:10.01 | 3:23.45 | 162751 | 178020 11 | 39:33.46 | 4:00.24 | 178021 | 196044 12 | 43:33.70 | 3:44.21 | 196045 | 212865 13 | 47:18.16 | 3:47.62 | 212866 | 229952 14 | 51:06.03 | 4:07.27 | 229953 | 248504 15 | 55:13.30 | 3:29.55 | 248505 | 264234 16 | 58:43.10 | 3:58.67 | 264235 | 282151 17 | 62:42.02 | 3:03.48 | 282152 | 295924

Range status and errors

Selected range

Filename C:\Music\The Rolling Stones\2012 - Grrr!\CD3\The Rolling Stones - Grrr! - cd3.wav

Peak level 100.0 % Extraction speed 2.0 X Range quality 100.0 % Test CRC 6705C1C3 Copy CRC 6705C1C3 Copy OK

No errors occurred

AccurateRip summary

Track 1 accurately ripped (confidence 1) [3680E170] (AR v1)Track 2 accurately ripped (confidence 1) [69B30BE2] (AR v1)Track 3 accurately ripped (confidence 1) [F52B2C4D] (AR v1)Track 4 accurately ripped (confidence 1) [3F6D8767] (AR v1)Track 5 accurately ripped (confidence 1) [797C4CFE] (AR v1)Track 6 accurately ripped (confidence 1) [35FE9D63] (AR v1)Track 7 accurately ripped (confidence 1) [3AFF75DE] (AR v1)Track 8 accurately ripped (confidence 1) [16CC26D0] (AR v1)Track 9 accurately ripped (confidence 1) [6CDEC0A3] (AR v1)Track 10 accurately ripped (confidence 1) [8821B1CE] (AR v1)Track 11 accurately ripped (confidence 1) [13DE19DD] (AR v1)Track 12 accurately ripped (confidence 1) [DA3CE995] (AR v1)Track 13 accurately ripped (confidence 1) [9B94575A] (AR v1)Track 14 accurately ripped (confidence 1) [B100058A] (AR v1)Track 15 accurately ripped (confidence 1) [1B0F0C7B] (AR v1)Track 16 accurately ripped (confidence 1) [94BA97A9] (AR v1)Track 17 accurately ripped (confidence 1) [8BABD84C] (AR v1)

All tracks accurately ripped

End of status report

==== Log checksum 4237D5C148B6D8CA38ABFC4815371FDB4CBF19C2C97EFEA43A6E918E2ED315B4 ====
Доп. информация:
---------------------------------------- - Release Info - ---------------------------------------- The Rolling Stones - Grrr!

Artist : The Rolling Stones Title : Grrr! Genre : Rock Style : Rock & Roll Year : 2012 Source : 3 x CDDA Label : Polydor Cat Number : 3710914 Rls Date : 2012 Country : UK & Europe Ripper : DJoker Ripper Soft : EAC V1.0 beta 3 Encoder : flac-1.2.1b Quality : Level8/44.1kHz/Stereo Tracks : 50 Playtime : 187:16 min Size : 1,13 Gb

---------------------------------------- - Track List - ----------------------------------------

CD1 01. Come On (1:50) 02. Not Fade Away (1:49) 03. It's All Over Now (3:27) 04. Little Red Rooster (3:06) 05. The Last Time (3:42) 06. (I Can't Get No) Satisfaction (3:44) 07. Time Is On My Side (3:01) 08. Get Off Of My Cloud (2:56) 09. Heart Of The Stone (2:51) 10. 19th Nervous Breakdown (3:59) 11. As Tears Go By (2:47) 12. Paint It, Black (3:24) 13. Under My Thumb (3:43) 14. Have You Seen Your Mother, Baby, Standing In The Shadow? (2:38) 15. Ruby Tuesday (3:15) 16. Let's Spend The Night Together (3:39) 17. We Love You (4:23)

CD2 01. Jumpin' Jack Flash (3:44) 02. Honky Tonk Women (3:02) 03. Sympathy For The Devil (6:20) 04. You Can't Always Get What You Want (4:51) 05. Gimme Shelter (4:33) 06. Street Fighting Man (3:16) 07. Wild Horses (5:45) 08. She's A Rainbow (4:13) 09. Brown Sugar (3:50) 10. Happy (3:06) 11. Tumbling Dice (3:47) 12. Angie (4:33) 13. Rocks Off (4:33) 14. Doo Doo Doo Doo Doo (Heartbreaker) (3:28) 15. It's Only Rock 'N' Roll (4:11) 16. Fool To Cry (4:07)

CD3 01. Miss You (3:35) 02. Respectable (3:09) 03. Beast Of Burden (3:30) 04. Emotional Rescue (3:43) 05. Start Me Up (3:33) 06. Waiting On A Friend (4:35) 07. Undercover Of The Night (4:14) 08. She Was Hot (4:42) 09. Streets Of Love (5:09) 10. Harlem Shuffle (3:24) 11. Mixed Emotions (4:00) 12. Highwire (3:44) 13. Love Is Strong (3:48) 14. Anybody Seen My Baby? (4:07) 15. Don't Stop (3:30) 16. Doom And Gloom (3:59) 17. One More Shot (3:04)

--------- 187:16 min 1,13 Gb
www.discogs.com

Трекер:  [ 14-Янв-2013 13:05 ]

  

Скачать .torrent

Размер .torrent файла 14 KB


Размер: 1.13 GB
Хэш (hash) релиза: 158e57994a8c113312d2d8ab41db84ba9d4ae7cb

Еще никто не оставлял запись к записи скачать торрент The Rolling Stones - Grrr! - 2012, FLAC . Будь первым!

!Обратная связь