Скачать через торрент музыку VA - Tokyo Flashback 2 - 1992, FLAC бесплатно без регистрации torrent

Если у вас наблюдаются проблемы со скриншотами, переходом по ссылками, скачиванием торрентов - проблемы в блокировщике рекламы AdBlock. #хорошегоДня!


Статистика раздачи
Размер:  413 MB   |    Зарегистрирован:  4 года 9 месяцев   |    .torrent скачан:  27 раз   |   
Раздают:  1  
   
Загрузка...
 
Автор Сообщение

Galfimbul

avatar Galfimbul


Various Artists - Tokyo Flashback 2

Жанр: Garage Rock, Psychedelic Rock
Страна-производитель диска: Japan
Год издания: 1992
Издатель (лейбл): P.S.F. Records
Номер по каталогу: PSFD-24
Аудиокодек: FLAC (*.flac)
Тип рипа: tracks+.cue
Битрейт аудио: lossless
Продолжительность: 1:08:26
Источник (релизер): what.cd (starcorea)
Наличие сканов в содержимом раздачи: нет
Треклист:
01 - White Heaven - Silver Current (5:39)
02 - High-Rise & Keiji Haino - T. F. B (3:58)
03 - Maher Shalal Hash Baz - Rest of Jokyu-blue house of lies fudoki bitter syrup (5:03)
04 - Marble Sheep and The Run-Down Sun's Children - I Just Stay In The Up-Side (8:09)
05 - Over Hang Party - Now appears Standing (7:19)
06 - Yura Yura Teikoku - Pretend stupid (4:15)
07 - Yuragi - Improvisation (3:07)
08 - Kousokuya - Signs (8:12)
09 - Ghost - Sun Is Tangging (5:15)
10 - Ohkami No Jikan - Thin City Part 2 (7:49)
11 - Fushitsusha - Marianne (9:40)

Discogs.com
X Lossless Decoder version 20120609 (141.0)

XLD extraction logfile from 2012-09-03 15:58:36 +0100

Various Artists / Tokyo Flashback 2

Used drive : MATSHITA DVD-R UJ-875 (revision DA09)

Ripper mode : XLD Secure RipperDisable audio cache : OK for the drive with a cache less than 1375KiBMake use of C2 pointers : NORead offset correction : 102Max retry count : 20Gap status : Analyzed, Appended (except HTOA)

TOC of the extracted CD Track | Start | Length | Start sector | End sector --------------------------------------------------------- 1 | 00:00:00 | 05:38:40 | 0 | 25389 2 | 05:38:40 | 03:58:37 | 25390 | 43276 3 | 09:37:02 | 05:02:40 | 43277 | 65966 4 | 14:39:42 | 08:09:20 | 65967 | 102661 5 | 22:48:62 | 07:19:10 | 102662 | 135596 6 | 30:07:72 | 04:15:35 | 135597 | 154756 7 | 34:23:32 | 03:06:68 | 154757 | 168774 8 | 37:30:25 | 08:12:02 | 168775 | 205676 9 | 45:42:27 | 05:14:73 | 205677 | 229299 10 | 50:57:25 | 07:49:00 | 229300 | 264474 11 | 58:46:25 | 09:40:07 | 264475 | 307981

AccurateRip Summary Disc not found in AccurateRip DB.

All Tracks Album gain : -6.84 dB Peak : 1.000000 Statistics Read error : 0 Jitter error (maybe fixed) : 0 Retry sector count : 0 Damaged sector count : 0

Track 01 Filename : /Users/jamiecharlton/Music/What.CD FLAC Rips/Compilations - Tokyo Flashback 2 (1992) [FLAC]/01 Silver Current.flac Pre-gap length : 00:02:00

Track gain : -2.38 dB Peak : 1.000000 CRC32 hash (test run) : 27818B1C CRC32 hash : 27818B1C CRC32 hash (skip zero) : AC8363BF AccurateRip v1 signature : CE9B94F4 AccurateRip v2 signature : 2140EBD5 ->Track not present in AccurateRip database. Statistics Read error : 0 Jitter error (maybe fixed) : 0 Retry sector count : 0 Damaged sector count : 0

Track 02 Filename : /Users/jamiecharlton/Music/What.CD FLAC Rips/Compilations - Tokyo Flashback 2 (1992) [FLAC]/02 T・F・B.flac Pre-gap length : 00:01:00

Track gain : -9.00 dB Peak : 1.000000 CRC32 hash (test run) : 85B38AFD CRC32 hash : 85B38AFD CRC32 hash (skip zero) : 344FF44A AccurateRip v1 signature : 0B0A9D43 AccurateRip v2 signature : 76118CAD ->Track not present in AccurateRip database. Statistics Read error : 0 Jitter error (maybe fixed) : 0 Retry sector count : 0 Damaged sector count : 0

Track 03 Filename : /Users/jamiecharlton/Music/What.CD FLAC Rips/Compilations - Tokyo Flashback 2 (1992) [FLAC]/03 嘘の風土記はうす青い・女給の休息は苦い水飴.flac Pre-gap length : 00:02:50

Track gain : -6.44 dB Peak : 1.000000 CRC32 hash (test run) : 3FC96556 CRC32 hash : 3FC96556 CRC32 hash (skip zero) : 4BE7B2A6 AccurateRip v1 signature : CC231F8A AccurateRip v2 signature : 028486CB ->Track not present in AccurateRip database. Statistics Read error : 0 Jitter error (maybe fixed) : 0 Retry sector count : 0 Damaged sector count : 0

Track 04 Filename : /Users/jamiecharlton/Music/What.CD FLAC Rips/Compilations - Tokyo Flashback 2 (1992) [FLAC]/04 I Just Stay In The Up-Side.flac Pre-gap length : 00:02:22

Track gain : -7.73 dB Peak : 0.926636 CRC32 hash (test run) : 11E44061 CRC32 hash : 11E44061 CRC32 hash (skip zero) : EDF3FEF5 AccurateRip v1 signature : C21610D4 AccurateRip v2 signature : FD8189E8 ->Track not present in AccurateRip database. Statistics Read error : 0 Jitter error (maybe fixed) : 0 Retry sector count : 0 Damaged sector count : 0

Track 05 Filename : /Users/jamiecharlton/Music/What.CD FLAC Rips/Compilations - Tokyo Flashback 2 (1992) [FLAC]/05 今、立ち現われる.flac Pre-gap length : 00:01:67

Track gain : -6.48 dB Peak : 1.000000 CRC32 hash (test run) : 5E575726 CRC32 hash : 5E575726 CRC32 hash (skip zero) : 4030DCC6 AccurateRip v1 signature : 29A5B86B AccurateRip v2 signature : 227A8FEB ->Track not present in AccurateRip database. Statistics Read error : 0 Jitter error (maybe fixed) : 0 Retry sector count : 0 Damaged sector count : 0

Track 06 Filename : /Users/jamiecharlton/Music/What.CD FLAC Rips/Compilations - Tokyo Flashback 2 (1992) [FLAC]/06 バカのふり.flac Pre-gap length : 00:02:42

Track gain : -4.08 dB Peak : 0.677582 CRC32 hash (test run) : 4036CF00 CRC32 hash : 4036CF00 CRC32 hash (skip zero) : F00CFC92 AccurateRip v1 signature : 73931A43 AccurateRip v2 signature : 33E53690 ->Track not present in AccurateRip database. Statistics Read error : 0 Jitter error (maybe fixed) : 0 Retry sector count : 0 Damaged sector count : 0

Track 07 Filename : /Users/jamiecharlton/Music/What.CD FLAC Rips/Compilations - Tokyo Flashback 2 (1992) [FLAC]/07 Improvisation.flac Pre-gap length : 00:04:17

Track gain : -3.66 dB Peak : 0.666931 CRC32 hash (test run) : A3867970 CRC32 hash : A3867970 CRC32 hash (skip zero) : D9EB4F1C AccurateRip v1 signature : 4C7EE438 AccurateRip v2 signature : E40286FC ->Track not present in AccurateRip database. Statistics Read error : 0 Jitter error (maybe fixed) : 0 Retry sector count : 0 Damaged sector count : 0

Track 08 Filename : /Users/jamiecharlton/Music/What.CD FLAC Rips/Compilations - Tokyo Flashback 2 (1992) [FLAC]/08 兆し.flac Pre-gap length : 00:03:13

Track gain : -4.92 dB Peak : 0.954987 CRC32 hash (test run) : 8C372B6A CRC32 hash : 8C372B6A CRC32 hash (skip zero) : 02B4D549 AccurateRip v1 signature : 01C236EB AccurateRip v2 signature : C620268F ->Track not present in AccurateRip database. Statistics Read error : 0 Jitter error (maybe fixed) : 0 Retry sector count : 0 Damaged sector count : 0

Track 09 Filename : /Users/jamiecharlton/Music/What.CD FLAC Rips/Compilations - Tokyo Flashback 2 (1992) [FLAC]/09 Sun Is Tangging.flac Pre-gap length : 00:02:02

Track gain : -4.50 dB Peak : 1.000000 CRC32 hash (test run) : E3330431 CRC32 hash : E3330431 CRC32 hash (skip zero) : 82C6ED91 AccurateRip v1 signature : 1CA3DCB1 AccurateRip v2 signature : 8CDB4D6B ->Track not present in AccurateRip database. Statistics Read error : 0 Jitter error (maybe fixed) : 0 Retry sector count : 0 Damaged sector count : 0

Track 10 Filename : /Users/jamiecharlton/Music/What.CD FLAC Rips/Compilations - Tokyo Flashback 2 (1992) [FLAC]/10 Thin City Part 2.flac Pre-gap length : 00:01:28

Track gain : -4.01 dB Peak : 0.913300 CRC32 hash (test run) : 782C506A CRC32 hash : 782C506A CRC32 hash (skip zero) : 73335A44 AccurateRip v1 signature : FC1A04C9 AccurateRip v2 signature : 91CBDDE4 ->Track not present in AccurateRip database. Statistics Read error : 0 Jitter error (maybe fixed) : 0 Retry sector count : 0 Damaged sector count : 0

Track 11 Filename : /Users/jamiecharlton/Music/What.CD FLAC Rips/Compilations - Tokyo Flashback 2 (1992) [FLAC]/11 マリアンヌ.flac Pre-gap length : 00:04:50

Track gain : -7.40 dB Peak : 1.000000 CRC32 hash (test run) : 878D26E3 CRC32 hash : 878D26E3 CRC32 hash (skip zero) : F7B385F0 AccurateRip v1 signature : F7AA2C64 AccurateRip v2 signature : ADD311F9 ->Track not present in AccurateRip database. Statistics Read error : 0 Jitter error (maybe fixed) : 0 Retry sector count : 0 Damaged sector count : 0

No errors occurred

End of status report
TITLE "Tokyo Flashback 2"REM GENRE "Psychedelic Rock"REM DATE "1992"REM DISCID 98100A0BREM REPLAYGAIN_ALBUM_GAIN -6.84 dBREM REPLAYGAIN_ALBUM_PEAK 1.000000REM COMPILATION TRUEFILE "01 - White Heaven - Silver Current.flac" WAVE TRACK 01 AUDIO TITLE "Silver Current" PERFORMER "White Heaven" REM REPLAYGAIN_TRACK_GAIN -2.38 dB REM REPLAYGAIN_TRACK_PEAK 1.000000 INDEX 01 00:00:00 TRACK 02 AUDIO TITLE "T. F. B" PERFORMER "High-Rise & Keiji Haino" REM REPLAYGAIN_TRACK_GAIN -9.00 dB REM REPLAYGAIN_TRACK_PEAK 1.000000 INDEX 00 05:37:40FILE "02 - High-Rise & Keiji Haino - T. F. B.flac" WAVE INDEX 01 00:00:00 TRACK 03 AUDIO TITLE "Rest of Jokyu-blue house of lies fudoki bitter syrup" PERFORMER "Maher Shalal Hash Baz" REM REPLAYGAIN_TRACK_GAIN -6.44 dB REM REPLAYGAIN_TRACK_PEAK 1.000000 INDEX 00 03:55:62FILE "03 - Maher Shalal Hash Baz - Rest of Jokyu-blue house of lies fudoki bitter syrup.flac" WAVE INDEX 01 00:00:00 TRACK 04 AUDIO TITLE "I Just Stay In The Up-Side" PERFORMER "Marble Sheep and The Run-Down Sun's Children" REM REPLAYGAIN_TRACK_GAIN -7.73 dB REM REPLAYGAIN_TRACK_PEAK 0.926636 INDEX 00 05:00:18FILE "04 I Just Stay In The Up-Side.flac" WAVE INDEX 01 00:00:00 TRACK 05 AUDIO TITLE "Now appears Standing" PERFORMER "Over Hang Party" REM REPLAYGAIN_TRACK_GAIN -6.48 dB REM REPLAYGAIN_TRACK_PEAK 1.000000 INDEX 00 08:07:28FILE "05 - Over Hang Party - Now appears Standing.flac" WAVE INDEX 01 00:00:00 TRACK 06 AUDIO TITLE "Pretend stupid" PERFORMER "Yura Yura Teikoku" REM REPLAYGAIN_TRACK_GAIN -4.08 dB REM REPLAYGAIN_TRACK_PEAK 0.677582 INDEX 00 07:16:43FILE "06 - Yura Yura Teikoku - Pretend stupid.flac" WAVE INDEX 01 00:00:00 TRACK 07 AUDIO TITLE "Improvisation" PERFORMER "Yuragi" REM REPLAYGAIN_TRACK_GAIN -3.66 dB REM REPLAYGAIN_TRACK_PEAK 0.666931 INDEX 00 04:11:18FILE "07 Improvisation.flac" WAVE INDEX 01 00:00:00 TRACK 08 AUDIO TITLE "Signs" PERFORMER "Kousokuya" REM REPLAYGAIN_TRACK_GAIN -4.92 dB REM REPLAYGAIN_TRACK_PEAK 0.954987 INDEX 00 03:03:55FILE "08 - Kousokuya - Signs.flac" WAVE INDEX 01 00:00:00 TRACK 09 AUDIO TITLE "Sun Is Tangging" PERFORMER "Ghost" REM REPLAYGAIN_TRACK_GAIN -4.50 dB REM REPLAYGAIN_TRACK_PEAK 1.000000 INDEX 00 08:10:00FILE "09 - Ghost - Sun Is Tangging.flac" WAVE INDEX 01 00:00:00 TRACK 10 AUDIO TITLE "Thin City Part 2" PERFORMER "Ohkami No Jikan" REM REPLAYGAIN_TRACK_GAIN -4.01 dB REM REPLAYGAIN_TRACK_PEAK 0.913300 INDEX 00 05:13:45FILE "10 - Ohkami No Jikan - Thin City Part 2.flac" WAVE INDEX 01 00:00:00 TRACK 11 AUDIO TITLE "Marianne" PERFORMER "Fushitsusha" REM REPLAYGAIN_TRACK_GAIN -7.40 dB REM REPLAYGAIN_TRACK_PEAK 1.000000 INDEX 00 07:44:25FILE "11 - Fushitsusha - Marianne.flac" WAVE INDEX 01 00:00:00



Трекер:  [ 14-Янв-2013 13:05 ]

  

Скачать .torrent

Размер .torrent файла 66 KB


Размер: 413 MB
Хэш (hash) релиза: 603672f0fc48bc6f50afc30b89dac2f727e66c77

Еще никто не оставлял запись к записи скачать торрент VA - Tokyo Flashback 2 - 1992, FLAC . Будь первым!

!Обратная связь