Скачать через торрент музыку VA - Tokyo Flashback 3 - 1993, FLAC бесплатно без регистрации torrent

Если у вас наблюдаются проблемы со скриншотами, переходом по ссылками, скачиванием торрентов - проблемы в блокировщике рекламы AdBlock. #хорошегоДня!


Статистика раздачи
Размер:  451 MB   |    Зарегистрирован:  4 года 7 месяцев   |    .torrent скачан:  24 раза   |   
Раздают:  1  
   
Загрузка...
 
Автор Сообщение

Galfimbul

avatar Galfimbul


Various Artists - Tokyo Flashback 3

Жанр: Garage Rock, Psychedelic Rock
Страна-производитель диска: Japan
Год издания: 1993
Издатель (лейбл): P.S.F. Records
Номер по каталогу: PSFD-34
Аудиокодек: FLAC (*.flac)
Тип рипа: tracks+.cue
Битрейт аудио: lossless
Продолжительность: 1:15:54
Источник (релизер): what.cd (starcorea)
Наличие сканов в содержимом раздачи: нет
Треклист:
01 - Overhang Party - Fever (7:49)
02 - White Heaven - Garden Noon (Midsummer Stroll) (5:36)
03 - Fushitsusha - Began To Notice (11:28)
04 - Cobalt - Woodcutter Mountain People (3:02)
05 - Kumo To Hae - Bottom Of The Night (8:48)
06 - Sweet & Honey - Ritual Of The Sun (4:45)
07 - Ghost - Suspect Tells Of Dog Under The Sun (6:20)
08 - Daiichi Hakkensha - All Die Anyway (4:23)
09 - Uchu Engine - Certificate (6:11)
10 - Maher Shalal Hash Baz - Tapes [Tuning-Casey Don't You Know How It Makes Me So Damn Crazy - Medicine For Depression - The Night Of Notins (9:48)
11 - Shizuka - Ribbon Of A Child That Has Been Unwound (7:45)

Discogs.com
X Lossless Decoder version 20120609 (141.0)

XLD extraction logfile from 2012-10-25 23:43:56 +0100

Various Artists / Tokyo Flashback 3

Used drive : MATSHITA DVD-R UJ-875 (revision DA09)

Ripper mode : XLD Secure RipperDisable audio cache : OK for the drive with a cache less than 1375KiBMake use of C2 pointers : NORead offset correction : 102Max retry count : 20Gap status : Analyzed, Appended (except HTOA)

TOC of the extracted CD Track | Start | Length | Start sector | End sector --------------------------------------------------------- 1 | 00:00:00 | 07:49:37 | 0 | 35211 2 | 07:49:37 | 05:36:05 | 35212 | 60416 3 | 13:25:42 | 11:28:13 | 60417 | 112029 4 | 24:53:55 | 03:01:72 | 112030 | 125676 5 | 27:55:52 | 08:47:38 | 125677 | 165239 6 | 36:43:15 | 04:44:42 | 165240 | 186581 7 | 41:27:57 | 06:19:53 | 186582 | 215059 8 | 47:47:35 | 04:22:50 | 215060 | 234759 9 | 52:10:10 | 06:11:17 | 234760 | 262601 10 | 58:21:27 | 09:48:10 | 262602 | 306711 11 | 68:09:37 | 07:44:48 | 306712 | 341559

List of alternate offset correction values # | Absolute | Relative | Confidence ------------------------------------------ 1 | -562 | -664 | 1

AccurateRip Summary (DiscID: 001f379c-010be853-a011ca0b) Track 01 : OK (v1, confidence 1/1, with different offset) Track 02 : OK (v1, confidence 1/1, with different offset) Track 03 : OK (v1, confidence 1/1, with different offset) Track 04 : OK (v1, confidence 1/1, with different offset) Track 05 : OK (v1, confidence 1/1, with different offset) Track 06 : OK (v1, confidence 1/1, with different offset) Track 07 : OK (v1, confidence 1/1, with different offset) Track 08 : OK (v1, confidence 1/1, with different offset) Track 09 : OK (v1, confidence 1/1, with different offset) Track 10 : OK (v1, confidence 1/1, with different offset) Track 11 : OK (v1, confidence 1/1, with different offset) ->All tracks accurately ripped.

All Tracks Album gain : -8.02 dB Peak : 0.994507 Statistics Read error : 0 Jitter error (maybe fixed) : 0 Retry sector count : 0 Damaged sector count : 0

Track 01 Filename : /Users/jamiecharlton/Music/What.CD FLAC Rips/Compilations - Tokyo Flashback 3 (1993) [FLAC]/01 発熱.flac Pre-gap length : 00:02:00

Track gain : -6.48 dB Peak : 0.992188 CRC32 hash (test run) : 96AD8DDE CRC32 hash : 96AD8DDE CRC32 hash (skip zero) : 7409ECDC AccurateRip v1 signature : 2FDF2FEA (7C7C06B2 w/correction) AccurateRip v2 signature : 2ABA5C46 ->Accurately ripped with different offset (v1, confidence 1/1, offset -664) Statistics Read error : 0 Jitter error (maybe fixed) : 0 Retry sector count : 0 Damaged sector count : 0

Track 02 Filename : /Users/jamiecharlton/Music/What.CD FLAC Rips/Compilations - Tokyo Flashback 3 (1993) [FLAC]/02 正午の庭 (Midsummer Stroll).flac Pre-gap length : 00:00:55

Track gain : -4.75 dB Peak : 0.992188 CRC32 hash (test run) : B9D3A42F CRC32 hash : B9D3A42F CRC32 hash (skip zero) : 431F8BBF AccurateRip v1 signature : 4F22A6E8 (F4DEFD30 w/correction) AccurateRip v2 signature : BCDC569D ->Accurately ripped with different offset (v1, confidence 1/1, offset -664) Statistics Read error : 0 Jitter error (maybe fixed) : 0 Retry sector count : 0 Damaged sector count : 0

Track 03 Filename : /Users/jamiecharlton/Music/What.CD FLAC Rips/Compilations - Tokyo Flashback 3 (1993) [FLAC]/03 気がつきだした.flac Pre-gap length : 00:02:37

Track gain : -8.83 dB Peak : 0.864166 CRC32 hash (test run) : 59994D91 CRC32 hash : 59994D91 CRC32 hash (skip zero) : 99AF7E2B AccurateRip v1 signature : 678757D5 (A0ED1C3D w/correction) AccurateRip v2 signature : 86B07177 ->Accurately ripped with different offset (v1, confidence 1/1, offset -664) Statistics Read error : 0 Jitter error (maybe fixed) : 0 Retry sector count : 0 Damaged sector count : 0

Track 04 Filename : /Users/jamiecharlton/Music/What.CD FLAC Rips/Compilations - Tokyo Flashback 3 (1993) [FLAC]/04 樵の山々.flac Pre-gap length : 00:02:38

Track gain : -7.48 dB Peak : 0.992188 CRC32 hash (test run) : 36C84B68 CRC32 hash : 36C84B68 CRC32 hash (skip zero) : C0020683 AccurateRip v1 signature : 0F81E595 (52675725 w/correction) AccurateRip v2 signature : 4A9A7B1A ->Accurately ripped with different offset (v1, confidence 1/1, offset -664) Statistics Read error : 0 Jitter error (maybe fixed) : 0 Retry sector count : 0 Damaged sector count : 0

Track 05 Filename : /Users/jamiecharlton/Music/What.CD FLAC Rips/Compilations - Tokyo Flashback 3 (1993) [FLAC]/05 Bottom of the Night.flac Pre-gap length : 00:01:37

Track gain : -4.67 dB Peak : 0.992188 CRC32 hash (test run) : 69378643 CRC32 hash : 69378643 CRC32 hash (skip zero) : 8B8F439B AccurateRip v1 signature : 417C689E (2B8F053E w/correction) AccurateRip v2 signature : 3A0F23D2 ->Accurately ripped with different offset (v1, confidence 1/1, offset -664) Statistics Read error : 0 Jitter error (maybe fixed) : 0 Retry sector count : 0 Damaged sector count : 0

Track 06 Filename : /Users/jamiecharlton/Music/What.CD FLAC Rips/Compilations - Tokyo Flashback 3 (1993) [FLAC]/06 Ritual of the Sun.flac Pre-gap length : 00:01:55

Track gain : -6.65 dB Peak : 0.992188 CRC32 hash (test run) : CA170265 CRC32 hash : CA170265 CRC32 hash (skip zero) : DBF5CBB9 AccurateRip v1 signature : 614B4552 (D7E4119A w/correction) AccurateRip v2 signature : 887BED80 ->Accurately ripped with different offset (v1, confidence 1/1, offset -664) Statistics Read error : 0 Jitter error (maybe fixed) : 0 Retry sector count : 0 Damaged sector count : 0

Track 07 Filename : /Users/jamiecharlton/Music/What.CD FLAC Rips/Compilations - Tokyo Flashback 3 (1993) [FLAC]/07 Suspect Tells of Dog Under the Sun.flac Pre-gap length : 00:01:30

Track gain : -1.60 dB Peak : 0.994476 CRC32 hash (test run) : 78FAD2DA CRC32 hash : 78FAD2DA CRC32 hash (skip zero) : A00A425C AccurateRip v1 signature : D3BD32AE (8416651E w/correction) AccurateRip v2 signature : D935F9C5 ->Accurately ripped with different offset (v1, confidence 1/1, offset -664) Statistics Read error : 0 Jitter error (maybe fixed) : 0 Retry sector count : 0 Damaged sector count : 0

Track 08 Filename : /Users/jamiecharlton/Music/What.CD FLAC Rips/Compilations - Tokyo Flashback 3 (1993) [FLAC]/08 どうせみんなしぬ.flac Pre-gap length : 00:01:15

Track gain : -2.67 dB Peak : 0.994507 CRC32 hash (test run) : 52429E96 CRC32 hash : 52429E96 CRC32 hash (skip zero) : ECE8DC50 AccurateRip v1 signature : FA2BC530 (C48A2FE8 w/correction) AccurateRip v2 signature : D8EE36EB ->Accurately ripped with different offset (v1, confidence 1/1, offset -664) Statistics Read error : 0 Jitter error (maybe fixed) : 0 Retry sector count : 0 Damaged sector count : 0

Track 09 Filename : /Users/jamiecharlton/Music/What.CD FLAC Rips/Compilations - Tokyo Flashback 3 (1993) [FLAC]/09 証明書.flac Pre-gap length : 00:01:28

Track gain : -7.67 dB Peak : 0.994507 CRC32 hash (test run) : 745656FE CRC32 hash : 745656FE CRC32 hash (skip zero) : 6E5159C2 AccurateRip v1 signature : 7CBC47AC (CB4586DC w/correction) AccurateRip v2 signature : 9FB830A9 ->Accurately ripped with different offset (v1, confidence 1/1, offset -664) Statistics Read error : 0 Jitter error (maybe fixed) : 0 Retry sector count : 0 Damaged sector count : 0

Track 10 Filename : /Users/jamiecharlton/Music/What.CD FLAC Rips/Compilations - Tokyo Flashback 3 (1993) [FLAC]/10 「Tapes」.flac Pre-gap length : 00:02:22

Track gain : -6.44 dB Peak : 0.994476 CRC32 hash (test run) : 60F21B8C CRC32 hash : 60F21B8C CRC32 hash (skip zero) : F07FF495 AccurateRip v1 signature : 2D81AF54 (AFE60A6C w/correction) AccurateRip v2 signature : 982FCCE6 ->Accurately ripped with different offset (v1, confidence 1/1, offset -664) Statistics Read error : 0 Jitter error (maybe fixed) : 0 Retry sector count : 0 Damaged sector count : 0

Track 11 Filename : /Users/jamiecharlton/Music/What.CD FLAC Rips/Compilations - Tokyo Flashback 3 (1993) [FLAC]/11 ほどかれた娥羅子のリボン.flac Pre-gap length : 00:02:12

Track gain : -3.38 dB Peak : 0.994507 CRC32 hash (test run) : 1BFD1552 CRC32 hash : 1BFD1552 CRC32 hash (skip zero) : 77535A13 AccurateRip v1 signature : 5C5A7260 (E341D5C8 w/correction) AccurateRip v2 signature : 3E9D6D95 ->Accurately ripped with different offset (v1, confidence 1/1, offset -664) Statistics Read error : 0 Jitter error (maybe fixed) : 0 Retry sector count : 0 Damaged sector count : 0

No errors occurred

End of status report
TITLE "Tokyo Flashback 3"REM GENRE "Psychedelic Rock"REM DATE "1993"REM DISCID A011CA0BREM REPLAYGAIN_ALBUM_GAIN -8.02 dBREM REPLAYGAIN_ALBUM_PEAK 0.994507REM COMPILATION TRUEFILE "01 - Overhang Party - Fever.flac" WAVE TRACK 01 AUDIO TITLE "Fever" PERFORMER "Overhang Party" REM REPLAYGAIN_TRACK_GAIN -6.48 dB REM REPLAYGAIN_TRACK_PEAK 0.992188 INDEX 01 00:00:00 TRACK 02 AUDIO TITLE "Garden Noon (Midsummer Stroll)" PERFORMER "White Heaven" REM REPLAYGAIN_TRACK_GAIN -4.75 dB REM REPLAYGAIN_TRACK_PEAK 0.992188 INDEX 00 07:48:57FILE "02 - White Heaven - Garden Noon (Midsummer Stroll).flac" WAVE INDEX 01 00:00:00 TRACK 03 AUDIO TITLE "Began To Notice" PERFORMER "Fushitsusha" REM REPLAYGAIN_TRACK_GAIN -8.83 dB REM REPLAYGAIN_TRACK_PEAK 0.864166 INDEX 00 05:33:43FILE "03 - Fushitsusha - Began To Notice.flac" WAVE INDEX 01 00:00:00 TRACK 04 AUDIO TITLE "Woodcutter Mountain People" PERFORMER "Cobalt" REM REPLAYGAIN_TRACK_GAIN -7.48 dB REM REPLAYGAIN_TRACK_PEAK 0.992188 INDEX 00 11:25:50FILE "04 - Cobalt - Woodcutter Mountain People.flac" WAVE INDEX 01 00:00:00 TRACK 05 AUDIO TITLE "Bottom of the Night" PERFORMER "Kumo To Hae" REM REPLAYGAIN_TRACK_GAIN -4.67 dB REM REPLAYGAIN_TRACK_PEAK 0.992188 INDEX 00 03:00:35FILE "05 - Kumo To Hae - Bottom of the Night.flac" WAVE INDEX 01 00:00:00 TRACK 06 AUDIO TITLE "Ritual of the Sun" PERFORMER "Sweet & Honey" REM REPLAYGAIN_TRACK_GAIN -6.65 dB REM REPLAYGAIN_TRACK_PEAK 0.992188 INDEX 00 08:45:58FILE "06 - Sweet & Honey - Ritual of the Sun.flac" WAVE INDEX 01 00:00:00 TRACK 07 AUDIO TITLE "Suspect Tells of Dog Under the Sun" PERFORMER "Ghost" REM REPLAYGAIN_TRACK_GAIN -1.60 dB REM REPLAYGAIN_TRACK_PEAK 0.994476 INDEX 00 04:43:12FILE "07 - Ghost - Suspect Tells of Dog Under the Sun.flac" WAVE INDEX 01 00:00:00 TRACK 08 AUDIO TITLE "All Die Anyway" PERFORMER "Daiichi Hakkensha" REM REPLAYGAIN_TRACK_GAIN -2.67 dB REM REPLAYGAIN_TRACK_PEAK 0.994507 INDEX 00 06:18:38FILE "08 - Daiichi Hakkensha - All Die Anyway.flac" WAVE INDEX 01 00:00:00 TRACK 09 AUDIO TITLE "Certificate" PERFORMER "Uchu Engine" REM REPLAYGAIN_TRACK_GAIN -7.67 dB REM REPLAYGAIN_TRACK_PEAK 0.994507 INDEX 00 04:21:22FILE "09 - Uchu Engine - Certificate.flac" WAVE INDEX 01 00:00:00 TRACK 10 AUDIO TITLE "Tapes [Tuning-Casey Don't You Know How It Makes Me So Damn Crazy - Medicine For Depression - The Night Of Notins" PERFORMER "Maher Shalal Hash Baz" REM REPLAYGAIN_TRACK_GAIN -6.44 dB REM REPLAYGAIN_TRACK_PEAK 0.994476 INDEX 00 06:08:70FILE "10 - Maher Shalal Hash Baz - Tapes [Tuning-Casey Don't You Know How It Makes Me So Damn Crazy - Medicine For Depression - The Night Of Notins.flac" WAVE INDEX 01 00:00:00 TRACK 11 AUDIO TITLE "Ribbon Of A Child That Has Been Unwound" PERFORMER "Shizuka" REM REPLAYGAIN_TRACK_GAIN -3.38 dB REM REPLAYGAIN_TRACK_PEAK 0.994507 INDEX 00 09:45:73FILE "11 - Shizuka - Ribbon Of A Child That Has Been Unwound.flac" WAVE INDEX 01 00:00:00



Трекер:  [ 14-Янв-2013 13:05 ]

  

Скачать .torrent

Размер .torrent файла 72 KB


Размер: 451 MB
Хэш (hash) релиза: 358fca5f2cc75dbb6453e8dc1799783b79129449

Еще никто не оставлял запись к записи скачать торрент VA - Tokyo Flashback 3 - 1993, FLAC . Будь первым!

!Обратная связь