Скачать через торрент [iPad] Ceмь пcиxoпaтoв Sеvеn Рsусhораths бесплатно русская версия torrent активатор

Если у вас наблюдаются проблемы со скриншотами, переходом по ссылками, скачиванием торрентов - проблемы в блокировщике рекламы AdBlock. #хорошегоДня!


Статистика раздачи
Размер:  1.89 GB   |    Зарегистрирован:  4 года 9 месяцев   |    .torrent скачан:  31 раз   |   
Раздают:  1  
   
Загрузка...
 
Автор Сообщение

Galfimbul

avatar Galfimbul


Ceмь пcиxoпaтoв / Sеvеn Рsусhораths

«They Won't Take Any Shih Tzu.»

Год выпуска: 2012
Страна: Великобритания
Студия: Blueprint Pictures, British Film Institute (BFI)
Жанр: Комедия, криминал
Продолжительность: 01:50:23
Рейтинг MPAA: R
Перевод: Профессиональный (дублированный)
Оригинальная аудиодорожка: есть
Cубтитры: русские и английские

Режиссёр: Mapтин MaкДoнa/ Маrtin МсDоnаgh
Сценарий: Mapтин MaкДoнa
Продюссер: Грэхэм Броадбент, Питер Чернин, Mаpтин MaкДонa

В ролях: Колин Фаррелл, Сэм Рокуэлл, Кристофер Уокен, Вуди Харрельсон, Том Уэйтс, Эбби Корниш, Желько Иванек, Майкл Питт, Майкл Стулбарг, Габури Сидибе

Описание:
Непутевый писатель потерял вдохновение и никак не может справиться с новым сценарием. Волей случая он оказывается втянутым в похищение собаки, затеянное его эксцентричными дружками. Выясняется, что украденное животное — любимый пёс главного местного гангстера, которому ничего не стоит в два счета вычислить и уничтожить оболтусов.

Доп. информация:


Качество исходника: BDRemux - Семь психопатов / Seven Psychopaths / 2012 / ДБ, СТ / Blu-Ray Remux (1080p)
Качество: BDRip
Разрешение: 1024х432
Формат: MP4
Видео: H.264, 2,40:1 , 2200kbit/s; 23.976fps

Аудио 1: Russian/Dub, AAC, 126kbit/s; 2ch; 48KHz
Аудио 2: English/Original, AAC, 126kbit/s; 2ch; 48KHz
XID: Apple:vendor_id:2012-586584contentID: 587751804Screenwriters: Мартин МакДонаProducers: Грэхэм Броадбент, Питер Чернин, Мартин МакДонаDirector: Мартин МакДонаCast: Колин Фаррелл, Сэм Рокуэлл, Кристофер Уокен, Вуди Харрельсон, Том Уэйтс, Эбби Корниш, Желько Иванек, Майкл Питт, Майкл Стулбарг, Габури СидибеRating: 5Long Description: Непутевый писатель потерял вдохновение и никак не может справиться с новым сценарием. Волей случая он оказывается втянутым в похищение собаки, затеянное его эксцентричными дружками. Выясняется, что украденное животное — любимый пёс главного местного гангстера, которому ничего не стоит в два счета вычислить и уничтожить оболтусов.Description: Непутевый писатель потерял вдохновение и никак не может справиться с новым сценарием. Волей случая он оказывается втянутым в похищение собаки, затеянное его эксцентричными дружками.Release Date: 2012-09-07T16:00:00ZGenre: ComedyArtist: Мартин МакДонаName: Семь психопатов
GeneralComplete name : /Users/imac/HandBrake/Sem.psihopatov.2012.x264.BDRip.1024x.m4vFormat : MPEG-4Codec ID : M4VFile size : 1.89 GiBDuration : 1h 50mnOverall bit rate mode : VariableOverall bit rate : 2 457 KbpsMovie name : Семь психопатовPerformer : Мартин МакДонаGenre : ComedyRecorded date : UTC 2012-09-07 16:00:00Encoded date : UTC 2013-01-12 21:45:26Tagged date : UTC 2013-01-12 21:47:03Cover : Yesdesc : Непутевый писатель потерял вдохновение и никак не может справиться с новым сценарием. Волей случая он оказывается втянутым в похищение собаки, затеянное его эксцентричными дружками.ldes : Непутевый писатель потерял вдохновение и никак не может справиться с новым сценарием. Волей случая он оказывается втянутым в похищение собаки, затеянное его эксцентричными дружками. Выясняется, что украденное животное — любимый пёс главного местного гангстера, которому ничего не стоит в два счета вычислить и уничтожить оболтусов.stik : 9rtng : 0cnID : 587751804xid : Apple:vendor_id:2012-586584iTunEXTC : mpaa|R|400|iTunMOVI : <?xml version="1.0" encoding="UTF-8"?> / <!DOCTYPE plist PUBLIC "-//Apple//DTD PLIST 1.0//EN" "http://www.apple.com/DTDs/PropertyList-1.0.dtd"> / <plist version="1.0"> / <dict> / <key>cast</key> / <array> / <dict> / <key>name</key> / <string>Колин Фаррелл</string> / </dict> / <dict> / <key>name</key> / <string>Сэм Рокуэлл</string> / </dict> / <dict> / <key>name</key> / <string>Кристофер Уокен</string> / </dict> / <dict> / <key>name</key> / <string>Вуди Харрельсон</string> / </dict> / <dict> / <key>name</key> / <string>Том Уэйтс</string> / </dict> / <dict> / <key>name</key> / <string>Эбби Корниш</string> / </dict> / <dict> / <key>name</key> / <string>Желько Иванек</string> / </dict> / <dict> / <key>name</key> / <string>Майкл Питт</string> / </dict> / <dict> / <key>name</key> / <string>Майкл Стулбарг</string> / </dict> / <dict> / <key>name</key> / <string>Габури Сидибе</string> / </dict> / </array> / <key>directors</key> / <array> / <dict> / <key>name</key> / <string>Мартин МакДона</string> / </dict> / </array> / <key>producers</key> / <array> / <dict> / <key>name</key> / <string>Грэхэм Броадбент</string> / </dict> / <dict> / <key>name</key> / <string>Питер Чернин</string> / </dict> / <dict> / <key>name</key> / <string>Мартин МакДона</string> / </dict> / </array> / <key>screenwriters</key> / <array> / <dict> / <key>name</key> / <string>Мартин МакДона</string> / </dict> / </array> / </dict> / </plist>

Video #1ID : 1Format : AVCFormat/Info : Advanced Video CodecFormat profile : <a href="mailto:High@L3.1Format" class="postLink">High@L3.1Format</a> settings, CABAC : YesFormat settings, ReFrames : 9 framesCodec ID : avc1Codec ID/Info : Advanced Video CodingDuration : 1h 50mnBit rate mode : VariableBit rate : 2 200 KbpsWidth : 1 024 pixelsHeight : 432 pixelsDisplay aspect ratio : 2.40:1Frame rate mode : VariableFrame rate : 23.976 fpsMinimum frame rate : 23.810 fpsMaximum frame rate : 24.272 fpsColor space : YUVChroma subsampling : 4:2:0Bit depth : 8 bitsScan type : ProgressiveBits/(Pixel*Frame) : 0.207Stream size : 1.69 GiB (89%)Writing library : x264 core 120Encoding settings : cabac=1 / ref=9 / deblock=1:0:0 / analyse=0x3:0x113 / me=umh / subme=9 / psy=1 / psy_rd=1.00:0.00 / mixed_ref=1 / me_range=32 / chroma_me=1 / trellis=1 / 8x8dct=1 / cqm=0 / deadzone=21,11 / fast_pskip=1 / chroma_qp_offset=-2 / threads=12 / sliced_threads=0 / nr=0 / decimate=1 / interlaced=0 / bluray_compat=0 / constrained_intra=0 / bframes=6 / b_pyramid=2 / b_adapt=2 / b_bias=0 / direct=1 / weightb=1 / open_gop=0 / weightp=2 / keyint=240 / keyint_min=24 / scenecut=40 / intra_refresh=0 / rc_lookahead=40 / rc=2pass / mbtree=1 / bitrate=2200 / ratetol=1.0 / qcomp=0.60 / qpmin=3 / qpmax=69 / qpstep=4 / cplxblur=20.0 / qblur=0.5 / ip_ratio=1.40 / aq=1:1.00Language : EnglishEncoded date : UTC 2013-01-12 21:45:27Tagged date : UTC 2013-01-12 21:46:46Color primaries : BT.709-5, BT.1361, IEC 61966-2-4, SMPTE RP177Transfer characteristics : BT.709-5, BT.1361Matrix coefficients : BT.709-5, BT.1361, IEC 61966-2-4 709, SMPTE RP177

Video #2ID : 7Format : JPEGCodec ID : jpegDuration : 1h 50mnBit rate mode : VariableBit rate : 648 bpsWidth : 640 pixelsHeight : 270 pixelsDisplay aspect ratio : 2.40:1Frame rate mode : VariableFrame rate : 0.002 fpsMinimum frame rate : 0.002 fpsMaximum frame rate : 0.005 fpsColor space : YUVChroma subsampling : 4:2:0Bit depth : 8 bitsCompression mode : LossyBits/(Pixel*Frame) : 1.875Stream size : 632 KiB (0%)Language : EnglishEncoded date : UTC 2013-01-12 21:47:03Tagged date : UTC 2013-01-12 21:47:03

Audio #1ID : 2Format : AACFormat/Info : Advanced Audio CodecFormat profile : LCCodec ID : 40Duration : 1h 50mnBit rate mode : VariableBit rate : 126 KbpsMaximum bit rate : 181 KbpsChannel(s) : 2 channelsChannel positions : Front: L RSampling rate : 48.0 KHzCompression mode : LossyStream size : 99.4 MiB (5%)Language : RussianEncoded date : UTC 2013-01-12 21:45:27Tagged date : UTC 2013-01-12 21:46:52

Audio #2ID : 3Format : AACFormat/Info : Advanced Audio CodecFormat profile : LCCodec ID : 40Duration : 1h 50mnBit rate mode : VariableBit rate : 126 KbpsMaximum bit rate : 204 KbpsChannel(s) : 2 channelsChannel positions : Front: L RSampling rate : 48.0 KHzCompression mode : LossyStream size : 99.3 MiB (5%)Language : EnglishEncoded date : UTC 2013-01-12 21:45:27Tagged date : UTC 2013-01-12 21:46:58

Text #1ID : 4Format : Timed textMuxing mode : sbtlCodec ID : tx3gDuration : 1h 43mnBit rate mode : VariableBit rate : 106 bpsStream size : 80.8 KiB (0%)Language : RussianEncoded date : UTC 2013-01-12 21:45:27Tagged date : UTC 2013-01-12 21:46:58

Text #2ID : 5Format : Timed textMuxing mode : sbtlCodec ID : tx3gDuration : 1h 43mnBit rate mode : VariableBit rate : 68 bpsStream size : 51.9 KiB (0%)Language : EnglishEncoded date : UTC 2013-01-12 21:45:27Tagged date : UTC 2013-01-12 21:46:58

Text #3ID : 6Format : Apple textCodec ID : textDuration : 1h 50mnBit rate mode : ConstantBit rate : 1 bpsStream size : 416 Bytes (0%)Language : EnglishEncoded date : UTC 2013-01-12 21:46:58Tagged date : UTC 2013-01-12 21:46:58

Menu00:00:00.000 : 00:00:00.00000:06:53.162 : 00:06:53.03800:14:26.197 : 00:14:26.11500:20:38.068 : 00:20:37.98700:27:05.997 : 00:27:05.91600:33:35.803 : 00:33:35.72200:38:01.193 : 00:38:01.11200:45:08.328 : 00:45:08.20500:52:11.417 : 00:52:11.29500:59:04.329 : 00:59:04.20701:09:26.575 : 01:09:26.49601:17:18.213 : 01:17:18.13301:20:54.720 : 01:20:54.64101:26:29.471 : 01:26:29.39301:35:36.892 : 01:35:36.81401:41:13.269 : 01:41:13.192
x264 [info]: frame I:1274 Avg QP:15.42 size: 87985 PSNR Mean Y:47.15 U:49.03 V:50.07 Avg:47.79 Global:47.08x264 [info]: frame P:32569 Avg QP:18.30 size: 26955 PSNR Mean Y:44.74 U:47.20 V:48.69 Avg:45.53 Global:44.57x264 [info]: frame B:124965 Avg QP:21.23 size: 6632 PSNR Mean Y:43.05 U:46.41 V:48.26 Avg:44.02 Global:43.19x264 [info]: consecutive B-frames: 1.3% 1.6% 3.1% 28.8% 18.0% 26.4% 20.7%x264 [info]: mb I I16..4: 12.2% 65.9% 21.8%x264 [info]: mb P I16..4: 0.7% 6.1% 1.3% P16..4: 37.1% 26.1% 18.3% 0.0% 0.0% skip:10.4%x264 [info]: mb B I16..4: 0.0% 0.8% 0.1% B16..8: 43.2% 9.1% 2.9% direct: 3.7% skip:40.1% L0:45.9% L1:46.5% BI: 7.7%x264 [info]: 8x8 transform intra:75.0% inter:66.7%x264 [info]: coded y,uvDC,uvAC intra: 91.8% 87.8% 72.3% inter: 26.5% 23.1% 5.6%x264 [info]: i16 v,h,dc,p: 38% 16% 12% 34%x264 [info]: i8 v,h,dc,ddl,ddr,vr,hd,vl,hu: 8% 7% 4% 11% 16% 15% 15% 12% 12%x264 [info]: i4 v,h,dc,ddl,ddr,vr,hd,vl,hu: 9% 7% 3% 10% 16% 15% 14% 12% 14%x264 [info]: i8c dc,h,v,p: 44% 20% 17% 19%x264 [info]: Weighted P-Frames: Y:5.4% UV:3.7%x264 [info]: ref P L0: 43.6% 10.7% 18.3% 7.0% 6.5% 4.5% 4.4% 2.2% 2.5% 0.2% 0.0%x264 [info]: ref B L0: 67.2% 13.9% 7.4% 4.1% 3.0% 2.7% 1.3% 0.4%x264 [info]: ref B L1: 90.1% 9.9%x264 [info]: SSIM Mean Y:0.9716808 (15.479db)x264 [info]: PSNR Mean Y:43.433 U:46.597 V:48.364 Avg:44.362 Global:43.459 kb/s:2196.77


Трекер:  [ 13-Янв-2013 11:17 ]

  

Скачать .torrent

Размер .torrent файла 38 KB


Размер: 1.89 GB
Хэш (hash) релиза: 283851434a10a27e2b0ca6c167765ce74b588dd9

Еще никто не оставлял запись к записи скачать торрент [iPad] Ceмь пcиxoпaтoв Sеvеn Рsусhораths . Будь первым!

!Обратная связь