Скачать через торрент музыку Silent Witness - Silent Witness - 1997, FLAC бесплатно без регистрации torrent

Если у вас наблюдаются проблемы со скриншотами, переходом по ссылками, скачиванием торрентов - проблемы в блокировщике рекламы AdBlock. #хорошегоДня!


Статистика раздачи
Размер:  282 MB   |    Зарегистрирован:  4 года 7 месяцев   |    .torrent скачан:  27 раз   |   
Раздают:  1  
   
Загрузка...
 
Автор Сообщение

Galfimbul

avatar Galfimbul


Silent Witness / Silent Witness

Жанр: Hard Rock
Страна-производитель диска: England
Год издания: 1997
Издатель (лейбл): Escape Music Ltd.
Номер по каталогу: ESM015
Страна: USA
Аудиокодек: FLAC (*.flac)
Тип рипа: image+.cue
Битрейт аудио: lossless
Продолжительность: 00:41:35
Источник (релизер): Audio CD
Наличие сканов в содержимом раздачи: да

Треклист:
1. Can't Keep From Falling
2. Living In A Lie
3. Pouring Rain
4. I'll Wait
5. Tell Me
6. Take Me Back
7. Don't Let A Good Thing Slip Away
8. Get Right Back Up
9. Wrapped Around Your Finger
10. Make This Night Last Forever
Exact Audio Copy V1.0 beta 3 from 29. August 2011

Отчёт EAC об извлечении, выполненном 13. января 2013, 10:47

Silent Witness / Silent Witness

Дисковод: hp CDDVDW TS-L633R Adapter: 0 ID: 0

Режим чтения : ДостоверностьИспользование точного потока : ДаОтключение кэша аудио : ДаИспользование указателей C2 : Нет

Коррекция смещения при чтении : 6Способность читать области Lead-in и Lead-out : ДаЗаполнение пропущенных сэмплов тишиной : ДаУдаление блоков с тишиной в начале и конце : НетПри вычислениях CRC использовались нулевые сэмплы : ДаИнтерфейс : Встроенный Win32-интерфейс для Win NT/2000

Выходной формат : Пользовательский кодировщикВыбранный битрейт : 128 kBit/sКачество : ВысокийДобавление ID3-тега : НетУтилита сжатия : C:\Program Files (x86)\Exact Audio Copy\Flac\flac.exeДополнительные параметры : -V -8 -T "Date=%year%" -T "Genre=%genre%" %source%

TOC извлечённого CD

Трек | Старт | Длительность | Начальный сектор | Конечный сектор --------------------------------------------------------------------- 1 | 0:00.00 | 4:32.00 | 0 | 20399 2 | 4:32.00 | 3:59.12 | 20400 | 38336 3 | 8:31.12 | 3:44.05 | 38337 | 55141 4 | 12:15.17 | 3:33.50 | 55142 | 71166 5 | 15:48.67 | 4:26.05 | 71167 | 91121 6 | 20:14.72 | 4:35.25 | 91122 | 111771 7 | 24:50.22 | 4:01.70 | 111772 | 129916 8 | 28:52.17 | 3:35.68 | 129917 | 146109 9 | 32:28.10 | 5:04.60 | 146110 | 168969 10 | 37:32.70 | 4:03.05 | 168970 | 187199

Характеристики диапазона извлечения и сообщения об ошибках

Выбранный диапазон

Имя файла D:\UPLOADS\SILENT WITNESS\Silent Witness - Silent Witness.wav

Пиковый уровень 100.0 % Скорость извлечения 3.5 X Качество диапазона 99.9 % CRC теста F31D7655 CRC копии F31D7655 Копирование... OK

Ошибок не произошло

Конец отчёта


Трекер:  [ 13-Янв-2013 11:09 ]

  

Скачать .torrent

Размер .torrent файла 11 KB


Размер: 282 MB
Хэш (hash) релиза: 62401d6dcbf2a2628bf815f9aab0912261166016

Еще никто не оставлял запись к записи скачать торрент Silent Witness - Silent Witness - 1997, FLAC . Будь первым!

!Обратная связь