Скачать через торрент музыку Theodore Ziras - Monster 5 - 2011, FLAC бесплатно без регистрации torrent

Если у вас наблюдаются проблемы со скриншотами, переходом по ссылками, скачиванием торрентов - проблемы в блокировщике рекламы AdBlock. #хорошегоДня!


Статистика раздачи
Размер:  310 MB   |    Зарегистрирован:  4 года 7 месяцев   |    .torrent скачан:  26 раз   |   
Раздают:  1  
   
Загрузка...
 
Автор Сообщение

Galfimbul

avatar Galfimbul


Theodore Ziras - Monster 5 - 2011
Жанр: Neoclassical/instrumental/Progressive Metal
Год издания: 2011
Издатель (лейбл): Sleaszy Rider
Номер по каталогу: SR-0111
Страна: Greece
Аудиокодек: FLAC (*.flac)
Тип рипа: image+.cue
Битрейт аудио: lossless
Продолжительность: 00:37:13
Источник (релизер): [MMT] shen
Наличие сканов в содержимом раздачи: да
Треклист:
01. Tearing Apart
02. Chaos IMF
03. Liquid Fire
04. Alex Left The Building
05. Future Waves
06. 1923
07. Into The Rush
08. Paradigma
09. Transition Game
10. Mess
11. Monster 5
Exact Audio Copy V1.0 beta 1 from 15. November 2010

EAC extraction logfile from 26. December 2012, 12:41

Theodore Ziras / Monster 5

Used drive : Optiarc DVD RW AD-7261S Adapter: 1 ID: 0

Read mode : SecureUtilize accurate stream : YesDefeat audio cache : YesMake use of C2 pointers : No

Read offset correction : 48Overread into Lead-In and Lead-Out : NoFill up missing offset samples with silence : YesDelete leading and trailing silent blocks : NoNull samples used in CRC calculations : YesUsed interface : Native Win32 interface for Win NT & 2000

Used output format : Internal WAV RoutinesSample format : 44.100 Hz; 16 Bit; Stereo

TOC of the extracted CD

Track | Start | Length | Start sector | End sector --------------------------------------------------------- 1 | 0:00.00 | 3:11.58 | 0 | 14382 2 | 3:11.58 | 3:27.19 | 14383 | 29926 3 | 6:39.02 | 2:53.71 | 29927 | 42972 4 | 9:32.73 | 2:40.12 | 42973 | 54984 5 | 12:13.10 | 3:43.45 | 54985 | 71754 6 | 15:56.55 | 4:15.22 | 71755 | 90901 7 | 20:12.02 | 3:16.58 | 90902 | 105659 8 | 23:28.60 | 3:17.32 | 105660 | 120466 9 | 26:46.17 | 3:16.69 | 120467 | 135235 10 | 30:03.11 | 3:52.30 | 135236 | 152665 11 | 33:55.41 | 3:17.05 | 152666 | 167445

Range status and errors

Selected range

Filename C:\Theodore Ziras - Monster 5.wav

Peak level 100.0 % Extraction speed 0.3 X Range quality 100.0 % Test CRC AFF59A0A Copy CRC AFF59A0A Copy OK

No errors occurred

AccurateRip summary

Track 1 not present in databaseTrack 2 not present in databaseTrack 3 not present in databaseTrack 4 not present in databaseTrack 5 not present in databaseTrack 6 not present in databaseTrack 7 not present in databaseTrack 8 not present in databaseTrack 9 not present in databaseTrack 10 not present in databaseTrack 11 not present in database

None of the tracks are present in the AccurateRip database

End of status report



Трекер:  [ 13-Янв-2013 09:38 ]

  

Скачать .torrent

Размер .torrent файла 13 KB


Размер: 310 MB
Хэш (hash) релиза: e0b41f04022750f4ea8b412c79bd21ebfac64d1c

Еще никто не оставлял запись к записи скачать торрент Theodore Ziras - Monster 5 - 2011, FLAC . Будь первым!

!Обратная связь