Скачать через торрент музыку David Bowie - Bowie At The BeebSampler - 2000, FLAC бесплатно без регистрации torrent

Если у вас наблюдаются проблемы со скриншотами, переходом по ссылками, скачиванием торрентов - проблемы в блокировщике рекламы AdBlock. #хорошегоДня!


Статистика раздачи
Размер:  135 MB   |    Зарегистрирован:  4 года 9 месяцев   |    .torrent скачан:  26 раз   |   
Раздают:  1  
   
Загрузка...
 
Автор Сообщение

Galfimbul

avatar Galfimbul


David Bowie / Bowie At The Beeb/Sampler
Жанр: Classic Rock, Glam Rock
Страна-производитель диска: United Kingdome
Год издания: 2000
Издатель (лейбл): EMI/BBC
Номер по каталогу: BEEBPRO 6872
Matrix number: BEEBPRO 6872 1:1:2 EMI UK
Страна: England
Аудиокодек: FLAC (*.flac)
Тип рипа: image+.cue (log&cue embedded)
Битрейт аудио: lossless
Продолжительность: 27:44
Источник (релизер): Личная коллекция
Наличие сканов в содержимом раздачи: да (300 dpi PNG)

Треклист:

1. [4:34] In The Heat Of The Morning
2. [3:41] Let Me Sleep Beside You
3. [3:23] Amsterdam
4. [3:24] Kooks
5. [2:50] Hang Onto Yourself
6. [3:31] Changes
7. [3:00] Oh! You Pretty Things
8. [3:20] Lady Stardust
Exact Audio Copy V1.0 beta 3 from 29. August 2011

EAC extraction logfile from 12. January 2013, 3:27

David Bowie / Bowie At The Beeb/Sampler (EMI/BBC, BEEBPRO 6872)

Used drive : PLEXTOR DVDR PX-880SA Adapter: 5 ID: 0

Read mode : SecureUtilize accurate stream : YesDefeat audio cache : YesMake use of C2 pointers : No

Read offset correction : 6Overread into Lead-In and Lead-Out : NoFill up missing offset samples with silence : YesDelete leading and trailing silent blocks : NoNull samples used in CRC calculations : YesUsed interface : Native Win32 interface for Win NT & 2000

Used output format : User Defined EncoderSelected bitrate : 1024 kBit/sQuality : HighAdd ID3 tag : NoCommand line compressor : C:\Program Files\FLAC\flac.exeAdditional command line options : -8 -V %source% -o %dest%

TOC of the extracted CD

Track | Start | Length | Start sector | End sector --------------------------------------------------------- 1 | 0:00.00 | 4:33.60 | 0 | 20534 2 | 4:33.60 | 3:41.00 | 20535 | 37109 3 | 8:14.60 | 3:23.37 | 37110 | 52371 4 | 11:38.22 | 3:24.33 | 52372 | 67704 5 | 15:02.55 | 2:50.37 | 67705 | 80491 6 | 17:53.17 | 3:31.03 | 80492 | 96319 7 | 21:24.20 | 2:59.50 | 96320 | 109794 8 | 24:23.70 | 3:20.15 | 109795 | 124809

Range status and errors

Selected range

Filename C:\Mysterons [Skull_of_Sheeps]\David Bowie [2000] Bowie At The Beeb,Sampler (EMI,BBC, BEEBPRO 6872)\David Bowie - Bowie At The Beeb,Sampler (EMI,BBC, BEEBPRO 6872).wav

Peak level 91.6 % Extraction speed 2.6 X Range quality 100.0 % Test CRC CF305200 Copy CRC CF305200 Copy OK

No errors occurred

AccurateRip summary

Track 1 not present in databaseTrack 2 not present in databaseTrack 3 not present in databaseTrack 4 not present in databaseTrack 5 not present in databaseTrack 6 not present in databaseTrack 7 not present in databaseTrack 8 not present in database

None of the tracks are present in the AccurateRip database

End of status report

---- CUETools DB Plugin V2.1.4

[CTDB TOCID: XjlePWNrSg397AfitZQU_egSLXw-] disk not present in databaseSubmit result: XjlePWNrSg397AfitZQU_egSLXw- has been uploaded

==== Log checksum D34E9DA615FB9662376DFEB6295A6252CEFCBD338FE076D25FD068E99038DD9B ====
[CUETools log; Date: 12.01.2013 3:29:14; Version: 2.1.4][CTDB TOCID: XjlePWNrSg397AfitZQU_egSLXw-] found.Track | CTDB Status 1 | (1/1) Accurately ripped 2 | (1/1) Accurately ripped 3 | (1/1) Accurately ripped 4 | (1/1) Accurately ripped 5 | (1/1) Accurately ripped 6 | (1/1) Accurately ripped 7 | (1/1) Accurately ripped 8 | (1/1) Accurately ripped[AccurateRip ID: 0008fd53-003ae338-65068008] disk not present in database.

Track Peak [ CRC32 ] [W/O NULL] [ LOG ] -- 91,6 [CF305200] [2F8B6641] CRC32 01 74,6 [A3492F96] [0F8AB938] 02 87,5 [DA0D3B08] [609AA14F] 03 80,5 [E4BFEABF] [824F1A31] 04 81,3 [7238E4AE] [68912D4F] 05 86,2 [A65218DF] [1F0EB2CA] 06 90,2 [EC49D5D0] [6FA052BF] 07 85,1 [C6E05F63] [D8C1B950] 08 91,6 [232480C3] [44434B85]
AUDIOCHECKER v2.0 beta (build 457) - by Dester - <a href="mailto:opdester@freemail.hu" class="postLink">opdester@freemail.hu</a>~~~~~~~~~~~~~~~~~~~~~~~~~~~~~~~~~~-=== DO NOT EDIT THIS FILE! ===-

Path: ...\David Bowie [2000] Bowie At The Beeb,Sampler (EMI,BBC, BEEBPRO 6872)

1 -=- David Bowie - Bowie At The Beeb,Sampler (EMI,BBC, BEEBPRO 6872).flac -=- CDDA (100%)

79277796


Трекер:  [ 12-Янв-2013 23:18 ]

  

Скачать .torrent

Размер .torrent файла 12 KB


Размер: 135 MB
Хэш (hash) релиза: 73b213a24630df517207792dfbef4725d8767c29

Еще никто не оставлял запись к записи скачать торрент David Bowie - Bowie At The BeebSampler - 2000, FLAC . Будь первым!

!Обратная связь