Скачать через торрент музыку The Holy Modal Rounders - Bird Song - Live 1971 бесплатно без регистрации torrent

Если у вас наблюдаются проблемы со скриншотами, переходом по ссылками, скачиванием торрентов - проблемы в блокировщике рекламы AdBlock. #хорошегоДня!


Статистика раздачи
Размер:  339 MB   |    Зарегистрирован:  4 года 10 месяцев   |    .torrent скачан:  24 раза   |   
Раздают:  1  
   
Загрузка...
 
Автор Сообщение

Galfimbul

avatar Galfimbul


The Holy Modal Rounders / Bird Song - Live 1971

Жанр: Psychedelic Folk, Freak Folk
Страна-производитель диска: UK
Год издания: 2004
Издатель (лейбл): Water
Номер по каталогу: water 130
Страна: USA
Аудиокодек: FLAC (*.flac)
Тип рипа: tracks+.cue
Битрейт аудио: lossless
Продолжительность: 46:22
Источник (релизер): what.cd ()
Наличие сканов в содержимом раздачи: да
Треклист:
01. Low Down Dog (6:51)
02. Catch Me (5:59)
03. Pink Underwear (3:32)
04. Boobs A Lot/Willie & The Hand Jive (6:31)
05. Bird Song (4:02)
06. Pollyanna (Go Sail Around The World) aka Claudette Ann (3:07)
07. Give Me Your Money (11:29)
08. Smokey Joe's Cafe (4:51)
Exact Audio Copy V1.0 beta 1 from 15. November 2010

EAC extraction logfile from 30. May 2011, 9:33

The Holy Modal Rounders / Bird Song - Live 1971

Used drive : PHILIPS DVDR1660P1 Adapter: 1 ID: 0

Read mode : SecureUtilize accurate stream : YesDefeat audio cache : YesMake use of C2 pointers : No

Read offset correction : 618Overread into Lead-In and Lead-Out : NoFill up missing offset samples with silence : YesDelete leading and trailing silent blocks : NoNull samples used in CRC calculations : YesUsed interface : Native Win32 interface for Win NT & 2000Gap handling : Appended to previous track

Used output format : User Defined EncoderSelected bitrate : 896 kBit/sQuality : HighAdd ID3 tag : NoCommand line compressor : C:\Program Files\Exact Audio Copy\Flac\flac.exeAdditional command line options : -8 -V -T "ARTIST=%a" -T "TITLE=%t" -T "ALBUM=%g" -T "DATE=%y" -T "TRACKNUMBER=%n" -T "TOTALTRACKS=%x" -T "GENRE=%m" -T "ALBUMARTIST=%v" -T "ALBUM ARTIST=%v" -T "COMMENT=EAC Secure Mode, Test & Copy, AccurateRip, FLAC -8" %s

TOC of the extracted CD

Track | Start | Length | Start sector | End sector --------------------------------------------------------- 1 | 0:00.00 | 6:51.30 | 0 | 30854 2 | 6:51.30 | 5:58.48 | 30855 | 57752 3 | 12:50.03 | 3:32.36 | 57753 | 73688 4 | 16:22.39 | 6:30.46 | 73689 | 102984 5 | 22:53.10 | 4:02.13 | 102985 | 121147 6 | 26:55.23 | 3:07.37 | 121148 | 135209 7 | 30:02.60 | 11:28.48 | 135210 | 186857 8 | 41:31.33 | 4:51.34 | 186858 | 208716

Track 1

Filename E:\Uploads\01 - Low Down Dog.wav

Pre-gap length 0:00:02.00

Peak level 96.6 % Extraction speed 5.4 X Track quality 100.0 % Test CRC 7254560D Copy CRC 7254560D Accurately ripped (confidence 1) [F5C5EBD7] Copy OK

Track 2

Filename E:\Uploads\02 - Catch Me.wav

Peak level 96.6 % Extraction speed 5.6 X Track quality 99.9 % Test CRC 66E30DD6 Copy CRC 66E30DD6 Accurately ripped (confidence 1) [A5E29F71] Copy OK

Track 3

Filename E:\Uploads\03 - Pink Underwear.wav

Peak level 96.6 % Extraction speed 6.5 X Track quality 100.0 % Test CRC 32C5835A Copy CRC 32C5835A Accurately ripped (confidence 1) [C4440513] Copy OK

Track 4

Filename E:\Uploads\04 - Boobs A Lot,Willie & The Hand Jive.wav

Peak level 96.6 % Extraction speed 7.5 X Track quality 100.0 % Test CRC 20E73CC5 Copy CRC 20E73CC5 Accurately ripped (confidence 1) [8260C19F] Copy OK

Track 5

Filename E:\Uploads\05 - Bird Song.wav

Peak level 96.6 % Extraction speed 7.6 X Track quality 100.0 % Test CRC 5632093C Copy CRC 5632093C Accurately ripped (confidence 1) [5522BB3D] Copy OK

Track 6

Filename E:\Uploads\06 - Pollyanna (Go Sail Around The World) aka Claudette Ann.wav

Peak level 96.6 % Extraction speed 7.6 X Track quality 100.0 % Test CRC F89D2156 Copy CRC F89D2156 Accurately ripped (confidence 1) [89A88B9D] Copy OK

Track 7

Filename E:\Uploads\07 - Give Me Your Money.wav

Peak level 96.6 % Extraction speed 9.2 X Track quality 100.0 % Test CRC DEB8A275 Copy CRC DEB8A275 Accurately ripped (confidence 1) [2F88FBF7] Copy OK

Track 8

Filename E:\Uploads\08 - Smokey Joe's Cafe.wav

Peak level 96.6 % Extraction speed 9.1 X Track quality 100.0 % Test CRC 8A2E1314 Copy CRC 8A2E1314 Accurately ripped (confidence 1) [2A22BEB2] Copy OK

All tracks accurately ripped

No errors occurred

End of status report

==== Log checksum 78A9914E1E9A7735C2F6EAA94800B09EC4CF370E5DB8C2D0EBE124C61A9CE22A ====
REM GENRE Folk/RockREM DATE 2004REM DISCID 6D0ADE08REM COMMENT "ExactAudioCopy v1.0b1"PERFORMER "The Holy Modal Rounders"TITLE "Bird Song - Live 1971"FILE "01 - Low Down Dog.wav" WAVE TRACK 01 AUDIO TITLE "Low Down Dog" PERFORMER "The Holy Modal Rounders" FLAGS DCP INDEX 01 00:00:00FILE "02 - Catch Me.wav" WAVE TRACK 02 AUDIO TITLE "Catch Me" PERFORMER "The Holy Modal Rounders" FLAGS DCP INDEX 01 00:00:00FILE "03 - Pink Underwear.wav" WAVE TRACK 03 AUDIO TITLE "Pink Underwear" PERFORMER "The Holy Modal Rounders" FLAGS DCP INDEX 01 00:00:00FILE "04 - Boobs A Lot,Willie & The Hand Jive.wav" WAVE TRACK 04 AUDIO TITLE "Boobs A Lot/Willie & The Hand Jive" PERFORMER "The Holy Modal Rounders" FLAGS DCP INDEX 01 00:00:00FILE "05 - Bird Song.wav" WAVE TRACK 05 AUDIO TITLE "Bird Song" PERFORMER "The Holy Modal Rounders" FLAGS DCP INDEX 01 00:00:00FILE "06 - Pollyanna (Go Sail Around The World) aka Claudette Ann.wav" WAVE TRACK 06 AUDIO TITLE "Pollyanna (Go Sail Around The World) aka Claudette Ann" PERFORMER "The Holy Modal Rounders" FLAGS DCP INDEX 01 00:00:00FILE "07 - Give Me Your Money.wav" WAVE TRACK 07 AUDIO TITLE "Give Me Your Money" PERFORMER "The Holy Modal Rounders" FLAGS DCP INDEX 01 00:00:00FILE "08 - Smokey Joe's Cafe.wav" WAVE TRACK 08 AUDIO TITLE "Smokey Joe's Cafe" PERFORMER "The Holy Modal Rounders" FLAGS DCP INDEX 01 00:00:00
Peter Stampfel vocals, fiddle
Steve Weber vocals, guitar
Robin Remailly vocals, guitar, mandolin, fiddle
Richard Tyler keyboard
Dave Reisch bass
Roger North drums
Teddy Deane reeds

Recorded live at WLR sometime in 1971


Трекер:  [ 12-Янв-2013 23:17 ]

  

Скачать .torrent

Размер .torrent файла 15 KB


Размер: 339 MB
Хэш (hash) релиза: ddb04a1b1865bd206999a7e4179425fcec978380

Еще никто не оставлял запись к записи скачать торрент The Holy Modal Rounders - Bird Song - Live 1971 . Будь первым!

!Обратная связь