Скачать через торрент музыку The Falcons - Дискография бесплатно без регистрации torrent

Если у вас наблюдаются проблемы со скриншотами, переходом по ссылками, скачиванием торрентов - проблемы в блокировщике рекламы AdBlock. #хорошегоДня!


Статистика раздачи
Размер:  1.47 GB   |    Зарегистрирован:  4 года 7 месяцев   |    .torrent скачан:  22 раза   |   
Раздают:  1  
   
Загрузка...
 
Автор Сообщение

Galfimbul

avatar Galfimbul


The Falcons

Дискография (5 Альбомов)

Жанр: Surf, Spaghetti Western, Spy, Rock'n'Roll
Страна-производитель диска: Canada
Год издания диска: 1997-2012
Аудиокодек: FLAC (*.flac)
Тип рипа: image+.cue
Битрейт аудио: lossless
Источник (релизер): ©СЁРФ-Маrаtones aka izia1956
Наличие сканов в содержимом раздачи: да
Треклист:
12 Января 2013 года добавлен альбом
2012 - Rebel Jukebox
Желающие могут ознакомиться
01. Desolation Sound (4:11)
02. Eldorado (3:40)
03. Silver Dollars (she wore) (3:49)
04. El Nino (3:33)
05. Maeve (3:05)
06. Betrayed (3:49)
07. The Hitch (3:07)
08. Hells Gate (4:41)
09. Sahara (3:32)
10. Barracuda (3:29)
11. The Moon under Water (3:57)
12. Queen of Diamonds (4:28)
13. Seattle (feat. Nokie Edwards) (3:07)
14. Rikki (feat. Nokie Edwards) (3:15)
Exact Audio Copy V0.99 prebeta 4 from 23. January 2008

Отчёт EAC об извлечении, выполненном 18. июня 2011, 15:12

The Falcons / Queen of Diamonds

Дисковод: PLEXTOR DVDR PX-880SA Adapter: 1 ID: 1

Режим чтения : ДостоверностьИспользование точного потока : ДаОтключение кэша аудио : ДаИспользование указателей C2 : Нет

Коррекция смещения при чтении : 6Способность читать области Lead-in и Lead-out : НетЗаполнение пропущенных сэмплов тишиной : ДаУдаление блоков с тишиной в начале и конце : НетПри вычислениях CRC использовались нулевые сэмплы : ДаИнтерфейс : Встроенный Win32-интерфейс для Win NT/2000

Выходной формат : Пользовательский кодировщикВыбранный битрейт : 1024 kBit/sКачество : ВысокийДобавление ID3-тэга : НетУтилита сжатия : C:\Program Files\Exact Audio Copy\FLAC\FLAC.EXEДополнительные параметры : -6 -V -T "ARTIST=%a" -T "TITLE=%t" -T "ALBUM=%g" -T "DATE=%y" -T "TRACKNUMBER=%n" -T "GENRE=%m" -T "COMMENT=%e" %s -o %d

TOC извлечённого CD

Трек | Старт | Длительность | Начальный сектор | Конечный сектор --------------------------------------------------------------------- 1 | 0:00.00 | 4:11.22 | 0 | 18846 2 | 4:11.22 | 3:40.50 | 18847 | 35396 3 | 7:51.72 | 3:49.65 | 35397 | 52636 4 | 11:41.62 | 3:33.70 | 52637 | 68681 5 | 15:15.57 | 3:05.00 | 68682 | 82556 6 | 18:20.57 | 3:49.28 | 82557 | 99759 7 | 22:10.10 | 3:07.32 | 99760 | 113816 8 | 25:17.42 | 4:41.25 | 113817 | 134916 9 | 29:58.67 | 3:32.25 | 134917 | 150841 10 | 33:31.17 | 3:29.30 | 150842 | 166546 11 | 37:00.47 | 3:57.55 | 166547 | 184376 12 | 40:58.27 | 4:28.00 | 184377 | 204476 13 | 45:26.27 | 3:07.53 | 204477 | 218554 14 | 48:34.05 | 3:15.32 | 218555 | 233211

Характеристики диапазона извлечения и сообщения об ошибках

Выбранный диапазон

Имя файла J:\BitComet\The Falcons(flac)\1997 - Queen of Diamonds\The Falcons - Queen of Diamonds.wav

Пиковый уровень 100.0 % Качество диапазона 100.0 % CRC теста C76E168B CRC копии C76E168B Копирование... OK

Ошибок не произошло

AccurateRip: сводка

Трек 1 точность не определена (достоверность 1) [DC8EA6ED], AccurateRip вернул [50E03CD9]Трек 2 точность не определена (достоверность 1) [0A218061], AccurateRip вернул [DF4D7773]Трек 3 точность не определена (достоверность 1) [BD24427D], AccurateRip вернул [40D979F5]Трек 4 точность не определена (достоверность 1) [C941D182], AccurateRip вернул [9DD83632]Трек 5 точность не определена (достоверность 1) [0C493378], AccurateRip вернул [314A9F51]Трек 6 точность не определена (достоверность 1) [6EE68A91], AccurateRip вернул [D6F61736]Трек 7 точность не определена (достоверность 1) [69A6F0E6], AccurateRip вернул [7E8D22C7]Трек 8 точность не определена (достоверность 1) [56AC9D69], AccurateRip вернул [62F8462D]Трек 9 точность не определена (достоверность 1) [1E109E1F], AccurateRip вернул [5CEB81E3]Трек 10 точность не определена (достоверность 1) [8D32A4AF], AccurateRip вернул [F8BE163F]Трек 11 точность не определена (достоверность 1) [770D76A6], AccurateRip вернул [A0B5948A]Трек 12 точность не определена (достоверность 1) [7CF4068D], AccurateRip вернул [4C59596F]Трек 13 точность не определена (достоверность 1) [1A2B1428], AccurateRip вернул [E501135B]Трек 14 точность не определена (достоверность 1) [4A21C1B1], AccurateRip вернул [0A06ED71]

Ни один трек не прошёл проверки на точностьВ вашей базе может быть иной вариант штамповки диска

Конец отчёта
01. Deck the Halls (3:00)
02. Jingle Bell Rock (2:41)
03. We Three Kings (2:45)
04. Ye Merry Gentlemen (2:36)
05. Angels on High (2:53)
06. Come all ye Faithful (3:00)
07. Rudolph the Red (feat. Pat Gerow) (3:04)
08. Silent Night (feat. Pat Gerow) (2:40)
09. Jingle Bells (feat. Pat Gerow) (3:23)
10. Meadowlands (3:17)
11. Wish you a Merry Christmas (0:38)
Exact Audio Copy V0.99 prebeta 4 from 23. January 2008

Отчёт EAC об извлечении, выполненном 26. июня 2011, 16:31

The Falcons / Canadian Christmas

Дисковод: PLEXTOR DVDR PX-880SA Adapter: 1 ID: 1

Режим чтения : ДостоверностьИспользование точного потока : ДаОтключение кэша аудио : ДаИспользование указателей C2 : Нет

Коррекция смещения при чтении : 6Способность читать области Lead-in и Lead-out : НетЗаполнение пропущенных сэмплов тишиной : ДаУдаление блоков с тишиной в начале и конце : НетПри вычислениях CRC использовались нулевые сэмплы : ДаИнтерфейс : Встроенный Win32-интерфейс для Win NT/2000

Выходной формат : Пользовательский кодировщикВыбранный битрейт : 1024 kBit/sКачество : ВысокийДобавление ID3-тэга : НетУтилита сжатия : C:\Program Files\Exact Audio Copy\FLAC\FLAC.EXEДополнительные параметры : -6 -V -T "ARTIST=%a" -T "TITLE=%t" -T "ALBUM=%g" -T "DATE=%y" -T "TRACKNUMBER=%n" -T "GENRE=%m" -T "COMMENT=%e" %s -o %d

TOC извлечённого CD

Трек | Старт | Длительность | Начальный сектор | Конечный сектор --------------------------------------------------------------------- 1 | 0:00.01 | 3:00.01 | 1 | 13501 2 | 3:00.02 | 2:41.44 | 13502 | 25620 3 | 5:41.46 | 2:45.68 | 25621 | 38063 4 | 8:27.39 | 2:36.20 | 38064 | 49783 5 | 11:03.59 | 2:53.66 | 49784 | 62824 6 | 13:57.50 | 3:00.18 | 62825 | 76342 7 | 16:57.68 | 3:04.26 | 76343 | 90168 8 | 20:02.19 | 2:40.01 | 90169 | 102169 9 | 22:42.20 | 3:23.44 | 102170 | 117438 10 | 26:05.64 | 3:17.70 | 117439 | 132283 11 | 29:23.59 | 0:38.37 | 132284 | 135170

Характеристики диапазона извлечения и сообщения об ошибках

Выбранный диапазон

Имя файла J:\BitComet\The Falcons(flac)\2004 - Canadian Christmas\The Falcons - Canadian Christmas.wav

Пиковый уровень 100.0 % Качество диапазона 100.0 % CRC теста 5BBBF39B CRC копии 5BBBF39B Копирование... OK

Ошибок не произошло

AccurateRip: сводка

Трек 1 нет в базе данныхТрек 2 нет в базе данныхТрек 3 нет в базе данныхТрек 4 нет в базе данныхТрек 5 нет в базе данныхТрек 6 нет в базе данныхТрек 7 нет в базе данныхТрек 8 нет в базе данныхТрек 9 нет в базе данныхТрек 10 нет в базе данныхТрек 11 нет в базе данных

Ни одного трека нет в базе AccurateRip

Конец отчёта
01. Wild Tide (2:53)
02. Another Tear (2:36)
03. Western Dreams (3:48)
04. Endless Victory (2:54)
05. Ride of the Highwaymen (2:55)
06. Belair (2:53)
07. Desert Star (3:16)
08. 1979 (2:33)
09. Boudoir Girls (2:26)
10. Sandra (with golden hair) (3:28)
11. Kitsilano (3:55)
12. Atomic Guitar (3:35)
13. Sleep Walk (3:40)
Exact Audio Copy V0.99 prebeta 4 from 23. January 2008

Отчёт EAC об извлечении, выполненном 26. июня 2011, 17:04

The Falcons / Atomic Guitar

Дисковод: PLEXTOR DVDR PX-880SA Adapter: 1 ID: 1

Режим чтения : ДостоверностьИспользование точного потока : ДаОтключение кэша аудио : ДаИспользование указателей C2 : Нет

Коррекция смещения при чтении : 6Способность читать области Lead-in и Lead-out : НетЗаполнение пропущенных сэмплов тишиной : ДаУдаление блоков с тишиной в начале и конце : НетПри вычислениях CRC использовались нулевые сэмплы : ДаИнтерфейс : Встроенный Win32-интерфейс для Win NT/2000

Выходной формат : Пользовательский кодировщикВыбранный битрейт : 1024 kBit/sКачество : ВысокийДобавление ID3-тэга : НетУтилита сжатия : C:\Program Files\Exact Audio Copy\FLAC\FLAC.EXEДополнительные параметры : -6 -V -T "ARTIST=%a" -T "TITLE=%t" -T "ALBUM=%g" -T "DATE=%y" -T "TRACKNUMBER=%n" -T "GENRE=%m" -T "COMMENT=%e" %s -o %d

TOC извлечённого CD

Трек | Старт | Длительность | Начальный сектор | Конечный сектор --------------------------------------------------------------------- 1 | 0:00.01 | 2:53.36 | 1 | 13011 2 | 2:53.37 | 2:36.49 | 13012 | 24760 3 | 5:30.11 | 3:48.35 | 24761 | 41895 4 | 9:18.46 | 2:54.48 | 41896 | 54993 5 | 12:13.19 | 2:55.24 | 54994 | 68142 6 | 15:08.43 | 2:53.35 | 68143 | 81152 7 | 18:02.03 | 3:16.73 | 81153 | 95925 8 | 21:19.01 | 2:33.36 | 95926 | 107436 9 | 23:52.37 | 2:26.37 | 107437 | 118423 10 | 26:18.74 | 3:28.73 | 118424 | 134096 11 | 29:47.72 | 3:55.35 | 134097 | 151756 12 | 33:43.32 | 3:35.35 | 151757 | 167916 13 | 37:18.67 | 3:40.35 | 167917 | 184451

Характеристики диапазона извлечения и сообщения об ошибках

Выбранный диапазон

Имя файла J:\BitComet\The Falcons(flac)\2011 - Atomic Guitar\The Falcons - Atomic Guitar.wav

Пиковый уровень 100.0 % Качество диапазона 100.0 % CRC теста 71592AA5 CRC копии 71592AA5 Копирование... OK

Ошибок не произошло

AccurateRip: сводка

Трек 1 нет в базе данныхТрек 2 нет в базе данныхТрек 3 нет в базе данныхТрек 4 нет в базе данныхТрек 5 нет в базе данныхТрек 6 нет в базе данныхТрек 7 нет в базе данныхТрек 8 нет в базе данныхТрек 9 нет в базе данныхТрек 10 нет в базе данныхТрек 11 нет в базе данныхТрек 12 нет в базе данныхТрек 13 нет в базе данных

Ни одного трека нет в базе AccurateRip

Конец отчёта
01. Shadow Land (3:00)
02. Tina (4:36)
03. Fiesta de Guerra (2:45)
04. Black Ice (2:57)
05. Wake Up (2:56)
06. Sombrero del Diablo (2:59)
07. Colleen (3:45)
08. Wings of Love (3:20)
09. Apache (3:08)
10. Mr. Big Hat (3:18)
11. Come By My Love (2:18)
12. Rikki (3:23)
13. Dreamrider (3:41)
Exact Audio Copy V0.99 prebeta 4 from 23. January 2008

Отчёт EAC об извлечении, выполненном 13. октября 2011, 20:12

The Falcons / EP Collection

Дисковод: PLEXTOR DVDR PX-880SA Adapter: 1 ID: 1

Режим чтения : ДостоверностьИспользование точного потока : ДаОтключение кэша аудио : ДаИспользование указателей C2 : Нет

Коррекция смещения при чтении : 6Способность читать области Lead-in и Lead-out : НетЗаполнение пропущенных сэмплов тишиной : ДаУдаление блоков с тишиной в начале и конце : НетПри вычислениях CRC использовались нулевые сэмплы : ДаИнтерфейс : Встроенный Win32-интерфейс для Win NT/2000

Выходной формат : Пользовательский кодировщикВыбранный битрейт : 1024 kBit/sКачество : ВысокийДобавление ID3-тэга : НетУтилита сжатия : C:\Program Files\Exact Audio Copy\FLAC\FLAC.EXEДополнительные параметры : -6 -V -T "ARTIST=%a" -T "TITLE=%t" -T "ALBUM=%g" -T "DATE=%y" -T "TRACKNUMBER=%n" -T "GENRE=%m" -T "COMMENT=%e" %s -o %d

TOC извлечённого CD

Трек | Старт | Длительность | Начальный сектор | Конечный сектор --------------------------------------------------------------------- 1 | 0:00.01 | 3:00.39 | 1 | 13539 2 | 3:00.40 | 4:36.48 | 13540 | 34287 3 | 7:37.13 | 2:45.60 | 34288 | 46722 4 | 10:22.73 | 2:57.16 | 46723 | 60013 5 | 13:20.14 | 2:56.56 | 60014 | 73269 6 | 16:16.70 | 2:59.11 | 73270 | 86705 7 | 19:16.06 | 3:45.23 | 86706 | 103603 8 | 23:01.29 | 3:20.10 | 103604 | 118613 9 | 26:21.39 | 3:08.61 | 118614 | 132774 10 | 29:30.25 | 3:18.11 | 132775 | 147635 11 | 32:48.36 | 2:18.63 | 147636 | 158048 12 | 35:07.24 | 3:23.71 | 158049 | 173344 13 | 38:31.20 | 3:41.64 | 173345 | 189983

Характеристики диапазона извлечения и сообщения об ошибках

Выбранный диапазон

Имя файла J:\BitComet\The Falcons(flac)\2011 - EP Collection\The Falcons - EP Collection.wav

Пиковый уровень 95.6 % Качество диапазона 100.0 % CRC теста F99C9856 CRC копии F99C9856 Копирование... OK

Ошибок не произошло

AccurateRip: сводка

Трек 1 нет в базе данныхТрек 2 нет в базе данныхТрек 3 нет в базе данныхТрек 4 нет в базе данныхТрек 5 нет в базе данныхТрек 6 нет в базе данныхТрек 7 нет в базе данныхТрек 8 нет в базе данныхТрек 9 нет в базе данныхТрек 10 нет в базе данныхТрек 11 нет в базе данныхТрек 12 нет в базе данныхТрек 13 нет в базе данных

Ни одного трека нет в базе AccurateRip

Конец отчёта
01. Rebel Jukebox (3:14)
02. Highway 99 (3:00)
03. Dreamrider (3:38)
04. Island Fadeaway (2:46)
05. Cruel Sea (feat. Bill Bonney) (2:53)
06. Winter Roads (2:46)
07. Restless (3:11)
08. Half Nelson (3:31)
09. From Sea to Ska (3:17)
10. Jokers Wild (4:03)
11. Daughters of Night (3:10)
12. One Ireland (3:15)
13. Renegado (4:06)
14. Pictures of the Floating World (3:33)
15. The Mexican (feat. Bill Bonney) (2:57)
Exact Audio Copy V0.99 prebeta 5 from 4. May 2009

Отчёт EAC об извлечении, выполненном 25. декабря 2012, 13:33

The Falcons / Rebel Jukebox

Дисковод: PLEXTOR DVDR PX-880SA Adapter: 1 ID: 0

Режим чтения : ДостоверностьИспользование точного потока : ДаОтключение кэша аудио : ДаИспользование указателей C2 : Нет

Коррекция смещения при чтении : 6Способность читать области Lead-in и Lead-out : НетЗаполнение пропущенных сэмплов тишиной : ДаУдаление блоков с тишиной в начале и конце : НетПри вычислениях CRC использовались нулевые сэмплы : ДаИнтерфейс : Установленный внешний ASPI-интерфейс

Выходной формат : Пользовательский кодировщикВыбранный битрейт : 1024 kBit/sКачество : ВысокийДобавление ID3-тэга : НетУтилита сжатия : C:\Program Files\Exact Audio Copy\FLAC\FLAC.EXEДополнительные параметры : -10 -V -T "ARTIST=%a" -T "TITLE=%t" -T "ALBUM=%g" -T "DATE=%y" -T "TRACKNUMBER=%n" -T "GENRE=%m" -T "COMMENT=%e" %s -o %d

TOC извлечённого CD

Трек | Старт | Длительность | Начальный сектор | Конечный сектор --------------------------------------------------------------------- 1 | 0:00.01 | 3:14.64 | 1 | 14614 2 | 3:14.65 | 3:00.01 | 14615 | 28115 3 | 6:14.66 | 3:38.66 | 28116 | 44531 4 | 9:53.57 | 2:46.64 | 44532 | 57045 5 | 12:40.46 | 2:53.61 | 57046 | 70081 6 | 15:34.32 | 2:46.69 | 70082 | 82600 7 | 18:21.26 | 3:11.30 | 82601 | 96955 8 | 21:32.56 | 3:31.43 | 96956 | 112823 9 | 25:04.24 | 3:17.21 | 112824 | 127619 10 | 28:21.45 | 4:03.42 | 127620 | 145886 11 | 32:25.12 | 3:10.02 | 145887 | 160138 12 | 35:35.14 | 3:15.32 | 160139 | 174795 13 | 38:50.46 | 4:06.37 | 174796 | 193282 14 | 42:57.08 | 3:33.23 | 193283 | 209280 15 | 46:30.31 | 2:57.48 | 209281 | 222603

Характеристики диапазона извлечения и сообщения об ошибках

Выбранный диапазон

Имя файла D:\BitComet\The Falcons(flac)\2012 - Rebel Jukebox\The Falcons - Rebel Jukebox.wav

Пиковый уровень 99.7 % Качество диапазона 100.0 % CRC теста F9F1D6D6 CRC копии F9F1D6D6 Копирование... OK

Ошибок не произошло

AccurateRip: сводка

Трек 1 нет в базе данныхТрек 2 нет в базе данныхТрек 3 нет в базе данныхТрек 4 нет в базе данныхТрек 5 нет в базе данныхТрек 6 нет в базе данныхТрек 7 нет в базе данныхТрек 8 нет в базе данныхТрек 9 нет в базе данныхТрек 10 нет в базе данныхТрек 11 нет в базе данныхТрек 12 нет в базе данныхТрек 13 нет в базе данныхТрек 14 нет в базе данныхТрек 15 нет в базе данных

Ни одного трека нет в базе AccurateRip

Конец отчёта


Трекер:  [ 12-Янв-2013 23:07 ]

  

Скачать .torrent

Размер .torrent файла 20 KB


Размер: 1.47 GB
Хэш (hash) релиза: 4404ca51502ca6bcc9cf5191f01754dfc7ef2a85

Торренты, похожие на The Falcons - Дискография скачать торрент

Форум Название Автор Размер S L Добавлен
Зарубежный Rock ·· (Surf, Spaghetti Western, Spy, Rock'n'Roll) The Falcons - Дискография (5 Альбомов) - 1997-2012, MP3, 320 kbps Galfimbul 580108999553 MB 0 0 1358021880

23:18

12-Янв-13

Еще никто не оставлял запись к записи скачать торрент The Falcons - Дискография . Будь первым!

!Обратная связь