Скачать через торрент музыку T. Love - Old Is Gold - 2012, FLAC бесплатно без регистрации torrent

Если у вас наблюдаются проблемы со скриншотами, переходом по ссылками, скачиванием торрентов - проблемы в блокировщике рекламы AdBlock. #хорошегоДня!


Статистика раздачи
Размер:  689 MB   |    Зарегистрирован:  4 года 10 месяцев   |    .torrent скачан:  30 раз   |   
Раздают:  1  
   
Загрузка...
 
Автор Сообщение

Galfimbul

avatar Galfimbul


T. Love / Old Is Gold

Жанр: Rock / Pop Rock
Страна-производитель диска: EU
Год издания: 2012
Издатель (лейбл): EMI Music Poland
Номер по каталогу: 5099997934226
Страна: Poland
Аудиокодек: FLAC (*.flac)
Тип рипа: tracks+.cue
Битрейт аудио: lossless
Продолжительность: 43:08 + 45:02
Источник (релизер): сеть
Наличие сканов в содержимом раздачи: да
1.Black And Blue
2.Frontline
3.Old Is Gold
4.Wieczorem W Mieście - Film
5.Menora Bentz
6.Syn Marnotrawny
7.Jak Nigdy
8.Mętna Woda
9.Tamla Lavenda
10.Poeci Umierają
11.Stanley
1.Lucy Phere
2.New York
3.Ostatni Taki Sklep
4.2005
5.Moja Kobieta
6.Country Rebel
7.Skomplikowany (Nowy Świat)
8.Orwell Or Not Well
9.Modlitwa
10.Henry Kadzidło
11.Jeśli Boga Nie Ma Tu
Exact Audio Copy V1.0 beta 3 from 29. August 2011

Sprawozdanie ze zgrywania programem EAC z 21. Października 2012, 19:57

T. Love / Old is Gold CD 1

Użyty napęd: TSSTcorpCDDVDW SH-S203P Adapter: 3 ID: 1

Tryb odczytu: : Bezpieczny
Dokładny strumień : Tak
Neutralizacja bufora napędu : Nie
Zwracanie błędów C2 : Nie

Korekta położenia dla odczytu : 6
Nadczytywanie w obszarach LeadIn i LeadOut : Nie
Dopełnianie ciszą brakujących próbek : Tak
Usuwanie początkowych i końcowych bloków ciszy : Nie
Do przeliczenia sumy kontrolnej CRC użyto próbek zerowych : Tak
Interfejs : Wewnętrzny interfejs Win32 dla Windows NT i 2000
Przerwy : Dodane do poprzedniego nagrania

Użyty format wyjściowy : Wewnętrzne procedury WAV
Format próbki : 44.100 Hz; 16 bitów; stereo

TOC zgranej płyty

Utwór | Początek | Długość | Sektor początkowy | Sektor końcowy
------------------------------------------------------------------
1 | 0:00.00 | 4:20.69 | 0 | 19568
2 | 4:20.69 | 4:57.50 | 19569 | 41893
3 | 9:18.44 | 2:36.13 | 41894 | 53606
4 | 11:54.57 | 4:18.09 | 53607 | 72965
5 | 16:12.66 | 2:59.66 | 72966 | 86456
6 | 19:12.57 | 3:17.08 | 86457 | 101239
7 | 22:29.65 | 5:15.72 | 101240 | 124936
8 | 27:45.62 | 4:15.31 | 124937 | 144092
9 | 32:01.18 | 3:57.33 | 144093 | 161900
10 | 35:58.51 | 3:45.18 | 161901 | 178793
11 | 39:43.69 | 3:24.03 | 178794 | 194096

Nagranie 1

Ścieżka pliku L:\T. Love - Old Is Gold\Cd 1\01 Black And Blue.wav

Długość przerwy 0:00:02.00

Poziom wysterowania 100.0 %
Szybkość zgrywania4.1 X
Jakość nagrania 99.9 %
CRC testowana D1D34EA8
CRC kopii D1D34EA8
Nagrania nie ma w bazie danych AccurateRip
Kopia bezbłędna

Nagranie 2

Ścieżka pliku L:\T. Love - Old Is Gold\Cd 1\02 Frontline.wav

Poziom wysterowania 100.0 %
Szybkość zgrywania4.9 X
Jakość nagrania 100.0 %
CRC testowana 453575B3
CRC kopii 453575B3
Nagrania nie ma w bazie danych AccurateRip
Kopia bezbłędna

Nagranie 3

Ścieżka pliku L:\T. Love - Old Is Gold\Cd 1\03 Old Is Gold.wav

Poziom wysterowania 100.0 %
Szybkość zgrywania5.2 X
Jakość nagrania 100.0 %
CRC testowana 58EFE3C1
CRC kopii 58EFE3C1
Nagrania nie ma w bazie danych AccurateRip
Kopia bezbłędna

Nagranie 4

Ścieżka pliku L:\T. Love - Old Is Gold\Cd 1\04 Wieczorem W Miescie , Film.wav

Poziom wysterowania 100.0 %
Szybkość zgrywania5.6 X
Jakość nagrania 100.0 %
CRC testowana 590E7BEE
CRC kopii 590E7BEE
Nagrania nie ma w bazie danych AccurateRip
Kopia bezbłędna

Nagranie 5

Ścieżka pliku L:\T. Love - Old Is Gold\Cd 1\05 Menora Bentz.wav

Poziom wysterowania 100.0 %
Szybkość zgrywania5.9 X
Jakość nagrania 100.0 %
CRC testowana 450FFDFC
CRC kopii 450FFDFC
Nagrania nie ma w bazie danych AccurateRip
Kopia bezbłędna

Nagranie 6

Ścieżka pliku L:\T. Love - Old Is Gold\Cd 1\06 Syn Marnotrawny.wav

Poziom wysterowania 100.0 %
Szybkość zgrywania6.2 X
Jakość nagrania 100.0 %
CRC testowana 46E6EFC4
CRC kopii 46E6EFC4
Nagrania nie ma w bazie danych AccurateRip
Kopia bezbłędna

Nagranie 7

Ścieżka pliku L:\T. Love - Old Is Gold\Cd 1\07 Jak Nigdy.wav

Poziom wysterowania 99.5 %
Szybkość zgrywania6.6 X
Jakość nagrania 100.0 %
CRC testowana C4905FA1
CRC kopii C4905FA1
Nagrania nie ma w bazie danych AccurateRip
Kopia bezbłędna

Nagranie 8

Ścieżka pliku L:\T. Love - Old Is Gold\Cd 1\08 Metna Woda.wav

Poziom wysterowania 99.2 %
Szybkość zgrywania6.9 X
Jakość nagrania 100.0 %
CRC testowana 6D8EB1DF
CRC kopii 6D8EB1DF
Nagrania nie ma w bazie danych AccurateRip
Kopia bezbłędna

Nagranie 9

Ścieżka pliku L:\T. Love - Old Is Gold\Cd 1\09 Tamla Lavenda.wav

Poziom wysterowania 100.0 %
Szybkość zgrywania7.2 X
Jakość nagrania 100.0 %
CRC testowana 1C0AC901
CRC kopii 1C0AC901
Nagrania nie ma w bazie danych AccurateRip
Kopia bezbłędna

Nagranie 10

Ścieżka pliku L:\T. Love - Old Is Gold\Cd 1\10 Poeci Umieraja.wav

Poziom wysterowania 100.0 %
Szybkość zgrywania7.4 X
Jakość nagrania 100.0 %
CRC testowana 91633C22
CRC kopii 91633C22
Nagrania nie ma w bazie danych AccurateRip
Kopia bezbłędna

Nagranie 11

Ścieżka pliku L:\T. Love - Old Is Gold\Cd 1\11 Stanley.wav

Poziom wysterowania 100.0 %
Szybkość zgrywania7.7 X
Jakość nagrania 100.0 %
CRC testowana 2048B913
CRC kopii 2048B913
Nagrania nie ma w bazie danych AccurateRip
Kopia bezbłędna

Żadnego nagrania nie ma w bazie danych AccurateRip

Nie było błędów

Koniec raportu
Exact Audio Copy V1.0 beta 3 from 29. August 2011

Sprawozdanie ze zgrywania programem EAC z 21. Października 2012, 20:21

T.Love / Old Is Gold Cd 2

Użyty napęd: TSSTcorpCDDVDW SH-S203P Adapter: 3 ID: 1

Tryb odczytu: : Bezpieczny
Dokładny strumień : Tak
Neutralizacja bufora napędu : Nie
Zwracanie błędów C2 : Nie

Korekta położenia dla odczytu : 6
Nadczytywanie w obszarach LeadIn i LeadOut : Nie
Dopełnianie ciszą brakujących próbek : Tak
Usuwanie początkowych i końcowych bloków ciszy : Nie
Do przeliczenia sumy kontrolnej CRC użyto próbek zerowych : Tak
Interfejs : Wewnętrzny interfejs Win32 dla Windows NT i 2000
Przerwy : Dodane do poprzedniego nagrania

Użyty format wyjściowy : Wewnętrzne procedury WAV
Format próbki : 44.100 Hz; 16 bitów; stereo

TOC zgranej płyty

Utwór | Początek | Długość | Sektor początkowy | Sektor końcowy
------------------------------------------------------------------
1 | 0:00.00 | 4:06.18 | 0 | 18467
2 | 4:06.18 | 3:14.17 | 18468 | 33034
3 | 7:20.35 | 4:14.43 | 33035 | 52127
4 | 11:35.03 | 4:33.36 | 52128 | 72638
5 | 16:08.39 | 4:06.17 | 72639 | 91105
6 | 20:14.56 | 3:55.59 | 91106 | 108789
7 | 24:10.40 | 2:53.13 | 108790 | 121777
8 | 27:03.53 | 4:38.18 | 121778 | 142645
9 | 31:41.71 | 4:20.46 | 142646 | 162191
10 | 36:02.42 | 4:07.49 | 162192 | 180765
11 | 40:10.16 | 4:51.54 | 180766 | 202644

Nagranie 1

Ścieżka pliku L:\T. Love - Old Is Gold\Cd 2\01 Lucy Phere.wav

Długość przerwy 0:00:02.00

Poziom wysterowania 99.6 %
Szybkość zgrywania4.3 X
Jakość nagrania 100.0 %
CRC testowana 0A35BF34
CRC kopii 0A35BF34
Nagrania nie ma w bazie danych AccurateRip
Kopia bezbłędna

Nagranie 2

Ścieżka pliku L:\T. Love - Old Is Gold\Cd 2\02 New York.wav

Poziom wysterowania 100.0 %
Szybkość zgrywania4.3 X
Jakość nagrania 99.9 %
CRC testowana 4B64AA7E
CRC kopii 4B64AA7E
Nagrania nie ma w bazie danych AccurateRip
Kopia bezbłędna

Nagranie 3

Ścieżka pliku L:\T. Love - Old Is Gold\Cd 2\03 Ostatni Taki Sklep.wav

Poziom wysterowania 99.7 %
Szybkość zgrywania5.2 X
Jakość nagrania 100.0 %
CRC testowana 441F96BC
CRC kopii 441F96BC
Nagrania nie ma w bazie danych AccurateRip
Kopia bezbłędna

Nagranie 4

Ścieżka pliku L:\T. Love - Old Is Gold\Cd 2\04 2005.wav

Poziom wysterowania 99.4 %
Szybkość zgrywania5.6 X
Jakość nagrania 100.0 %
CRC testowana 051C5BE4
CRC kopii 051C5BE4
Nagrania nie ma w bazie danych AccurateRip
Kopia bezbłędna

Nagranie 5

Ścieżka pliku L:\T. Love - Old Is Gold\Cd 2\05 Moja Kobieta.wav

Poziom wysterowania 99.6 %
Szybkość zgrywania6.0 X
Jakość nagrania 100.0 %
CRC testowana EAB61C8E
CRC kopii EAB61C8E
Nagrania nie ma w bazie danych AccurateRip
Kopia bezbłędna

Nagranie 6

Ścieżka pliku L:\T. Love - Old Is Gold\Cd 2\06 Country Rebel.wav

Poziom wysterowania 100.0 %
Szybkość zgrywania6.3 X
Jakość nagrania 100.0 %
CRC testowana FB779C49
CRC kopii FB779C49
Nagrania nie ma w bazie danych AccurateRip
Kopia bezbłędna

Nagranie 7

Ścieżka pliku L:\T. Love - Old Is Gold\Cd 2\07 Skomplikowany (Nowy Swiat).wav

Poziom wysterowania 100.0 %
Szybkość zgrywania6.5 X
Jakość nagrania 100.0 %
CRC testowana 586FF23E
CRC kopii 586FF23E
Nagrania nie ma w bazie danych AccurateRip
Kopia bezbłędna

Nagranie 8

Ścieżka pliku L:\T. Love - Old Is Gold\Cd 2\08 Orwell Or Not Well.wav

Poziom wysterowania 100.0 %
Szybkość zgrywania6.4 X
Jakość nagrania 99.9 %
CRC testowana C0DAEAE5
CRC kopii C0DAEAE5
Nagrania nie ma w bazie danych AccurateRip
Kopia bezbłędna

Nagranie 9

Ścieżka pliku L:\T. Love - Old Is Gold\Cd 2\09 Modlitwa.wav

Poziom wysterowania 99.5 %
Szybkość zgrywania6.7 X
Jakość nagrania 99.9 %
CRC testowana BACA7412
CRC kopii BACA7412
Nagrania nie ma w bazie danych AccurateRip
Kopia bezbłędna

Nagranie 10

Ścieżka pliku L:\T. Love - Old Is Gold\Cd 2\10 Henry Kadzidlo.wav

Poziom wysterowania 100.0 %
Szybkość zgrywania6.9 X
Jakość nagrania 99.9 %
CRC testowana 0CA03552
CRC kopii 0CA03552
Nagrania nie ma w bazie danych AccurateRip
Kopia bezbłędna

Nagranie 11

Ścieżka pliku L:\T. Love - Old Is Gold\Cd 2\11 Jesli Boga Nie Ma Tu.wav

Poziom wysterowania 99.7 %
Szybkość zgrywania7.7 X
Jakość nagrania 100.0 %
CRC testowana 5BB73C21
CRC kopii 5BB73C21
Nagrania nie ma w bazie danych AccurateRip
Kopia bezbłędna

Żadnego nagrania nie ma w bazie danych AccurateRip

Nie było błędów

Koniec raportu
REM GENRE Rock
REM DATE 2012
REM DISCID 8C0A1B0B
REM COMMENT "ExactAudioCopy v1.0b3"
PERFORMER "T. Love"
TITLE "Old is Gold CD 1"
FILE "01 Black And Blue.wav" WAVE
TRACK 01 AUDIO
TITLE "Black And Blue"
PERFORMER "T. Love"
INDEX 01 00:00:00
FILE "02 Frontline.wav" WAVE
TRACK 02 AUDIO
TITLE "Frontline"
PERFORMER "T. Love"
INDEX 01 00:00:00
FILE "03 Old Is Gold.wav" WAVE
TRACK 03 AUDIO
TITLE "Old Is Gold"
PERFORMER "T. Love"
INDEX 01 00:00:00
FILE "04 Wieczorem W Miescie , Film.wav" WAVE
TRACK 04 AUDIO
TITLE "Wieczorem W Miescie / Film"
PERFORMER "T. Love"
INDEX 01 00:00:00
FILE "05 Menora Bentz.wav" WAVE
TRACK 05 AUDIO
TITLE "Menora Bentz"
PERFORMER "T. Love"
INDEX 01 00:00:00
FILE "06 Syn Marnotrawny.wav" WAVE
TRACK 06 AUDIO
TITLE "Syn Marnotrawny"
PERFORMER "T. Love"
INDEX 01 00:00:00
FILE "07 Jak Nigdy.wav" WAVE
TRACK 07 AUDIO
TITLE "Jak Nigdy"
PERFORMER "T. Love"
INDEX 01 00:00:00
FILE "08 Metna Woda.wav" WAVE
TRACK 08 AUDIO
TITLE "Metna Woda"
PERFORMER "T. Love"
INDEX 01 00:00:00
FILE "09 Tamla Lavenda.wav" WAVE
TRACK 09 AUDIO
TITLE "Tamla Lavenda"
PERFORMER "T. Love"
INDEX 01 00:00:00
FILE "10 Poeci Umieraja.wav" WAVE
TRACK 10 AUDIO
TITLE "Poeci Umieraja"
PERFORMER "T. Love"
INDEX 01 00:00:00
FILE "11 Stanley.wav" WAVE
TRACK 11 AUDIO
TITLE "Stanley"
PERFORMER "T. Love"
INDEX 01 00:00:00
REM GENRE Rock
REM DATE 2012
REM DISCID 870A8D0B
REM COMMENT "ExactAudioCopy v1.0b3"
PERFORMER "T.Love"
TITLE "Old Is Gold Cd 2"
FILE "01 Lucy Phere.wav" WAVE
TRACK 01 AUDIO
TITLE "Lucy Phere"
PERFORMER "T.Love"
INDEX 01 00:00:00
FILE "02 New York.wav" WAVE
TRACK 02 AUDIO
TITLE "New York"
PERFORMER "T.Love"
INDEX 01 00:00:00
FILE "03 Ostatni Taki Sklep.wav" WAVE
TRACK 03 AUDIO
TITLE "Ostatni Taki Sklep"
PERFORMER "T.Love"
INDEX 01 00:00:00
FILE "04 2005.wav" WAVE
TRACK 04 AUDIO
TITLE "2005"
PERFORMER "T.Love"
INDEX 01 00:00:00
FILE "05 Moja Kobieta.wav" WAVE
TRACK 05 AUDIO
TITLE "Moja Kobieta"
PERFORMER "T.Love"
INDEX 01 00:00:00
FILE "06 Country Rebel.wav" WAVE
TRACK 06 AUDIO
TITLE "Country Rebel"
PERFORMER "T.Love"
INDEX 01 00:00:00
FILE "07 Skomplikowany (Nowy Swiat).wav" WAVE
TRACK 07 AUDIO
TITLE "Skomplikowany (Nowy Swiat)"
PERFORMER "T.Love"
INDEX 01 00:00:00
FILE "08 Orwell Or Not Well.wav" WAVE
TRACK 08 AUDIO
TITLE "Orwell Or Not Well"
PERFORMER "T.Love"
INDEX 01 00:00:00
FILE "09 Modlitwa.wav" WAVE
TRACK 09 AUDIO
TITLE "Modlitwa"
PERFORMER "T.Love"
INDEX 01 00:00:00
FILE "10 Henry Kadzidlo.wav" WAVE
TRACK 10 AUDIO
TITLE "Henry Kadzidlo"
PERFORMER "T.Love"
INDEX 01 00:00:00
FILE "11 Jesli Boga Nie Ma Tu.wav" WAVE
TRACK 11 AUDIO
TITLE "Jesli Boga Nie Ma Tu"
PERFORMER "T.Love"
INDEX 01 00:00:00
Muniek Staszczyk – śpiew
Tom Pierzchalski – saksofon
Sidney Polak – perkusja
Paweł Nazimek – gitara basowa
Maciej Majchrzak – gitara
Michał Marecki – instrumenty klawiszowe, akordeon
Jan Pęczak – gitara, gitara basowa, mandolina
Anna Ołdak – gościnne śpiew
Aleksandra Galewska – gościnne śpiew
Grzegorz Chudek – gościnne perkusja
Dariusz Zając – gościnne instrumenty klawiszowe
Tomasz Duda – gościnne klarnet
Łukasz Korybalski – gościnne trąbka
Dariusz Plichta – gościnne puzon
Pako Sarr – śpiew
Przemysław Kostrzewa – trąbka


Трекер:  [ 12-Янв-2013 17:25 ]

  

Скачать .torrent

Размер .torrent файла 16 KB


Размер: 689 MB
Хэш (hash) релиза: add83b8e15a094a865f559b02850259f7db1bc1e

Еще никто не оставлял запись к записи скачать торрент T. Love - Old Is Gold - 2012, FLAC . Будь первым!

!Обратная связь