Скачать через торрент музыку Budka Suflera - Live at Carnegie Hall - 2000, FLAC бесплатно без регистрации torrent

Если у вас наблюдаются проблемы со скриншотами, переходом по ссылками, скачиванием торрентов - проблемы в блокировщике рекламы AdBlock. #хорошегоДня!


Статистика раздачи
Размер:  856 MB   |    Зарегистрирован:  4 года 7 месяцев   |    .torrent скачан:  34 раза   |   
Раздают:  1  
   
Загрузка...
 
Автор Сообщение

Galfimbul

avatar Galfimbul


Budka Suflera / Live at Carnegie Hall

Жанр: Rock
Страна-производитель диска: Poland
Год издания: 2000
Издатель (лейбл): New Abra
Страна: Poland
Аудиокодек: FLAC (*.flac)
Тип рипа: tracks+.cue
Битрейт аудио: lossless
Продолжительность: 00:58:01 + 00:59:40
Источник (релизер): сеть
Наличие сканов в содержимом раздачи: нет
01 - Młode lwy – 7:15
02 - Sen o dolinie – 3:34
03 - Cały mój zgiełk – 5:38
04 - Geniusz Blues – 5:14
05 - To nie tak miało być – 5:24
06 - Rock 'n' roll na dobry początek – 4:34
07 - Za ostatni grosz – 4:30
08 - Nie wierz nigdy kobiecie – 5:21
09 - Czas ołowiu – 5:38
10 - Noc komety – 4:31
11 - Jolka, Jolka pamiętasz – 6:23
01 - Jeden raz – 4:02
02 - Gdzie jest ta krew – 4:36
03 - Głodny – 6:02
04 - Strefa półcienia – 4:51
05 - Takie tango – 4:42
06 - Memu miastu na do widzenia – 3:44
07 - Martwe Morze – 4:48
08 - Cisza jak ta – 5:27
09 - Jest taki samotny dom – 8:38
10 - Piąty bieg – 6:04
11 - Cień wielkiej góry – 6:45
REM GENRE Rock
REM DATE 2000
REM DISCID 850D980B
REM COMMENT "ExactAudioCopy v0.99pb5"
PERFORMER "Budka Suflera"
TITLE "Live At Carnegie Hall CD 1"
FILE "01 - Młode lwy.wav" WAVE
TRACK 01 AUDIO
TITLE "Młode lwy"
PERFORMER "Budka Suflera"
INDEX 01 00:00:00
FILE "02 - Sen o dolinie.wav" WAVE
TRACK 02 AUDIO
TITLE "Sen o dolinie"
PERFORMER "Budka Suflera"
INDEX 01 00:00:00
FILE "03 - Cały mój zgiełk.wav" WAVE
TRACK 03 AUDIO
TITLE "Cały mój zgiełk"
PERFORMER "Budka Suflera"
INDEX 01 00:00:00
FILE "04 - Geniusz blues.wav" WAVE
TRACK 04 AUDIO
TITLE "Geniusz blues"
PERFORMER "Budka Suflera"
INDEX 01 00:00:00
FILE "05 - To nie tak miało być.wav" WAVE
TRACK 05 AUDIO
TITLE "To nie tak miało być"
PERFORMER "Budka Suflera"
INDEX 01 00:00:00
FILE "06 - Rock'n Roll na dobry początek.wav" WAVE
TRACK 06 AUDIO
TITLE "Rock'n Roll na dobry początek"
PERFORMER "Budka Suflera"
INDEX 01 00:00:00
FILE "07 - Za ostatni grosz.wav" WAVE
TRACK 07 AUDIO
TITLE "Za ostatni grosz"
PERFORMER "Budka Suflera"
INDEX 01 00:00:00
FILE "08 - Nie wierz nigdy kobiecie.wav" WAVE
TRACK 08 AUDIO
TITLE "Nie wierz nigdy kobiecie"
PERFORMER "Budka Suflera"
INDEX 01 00:00:00
FILE "09 - Czas ołowiu.wav" WAVE
TRACK 09 AUDIO
TITLE "Czas ołowiu"
PERFORMER "Budka Suflera"
INDEX 01 00:00:00
FILE "10 - Noc komety.wav" WAVE
TRACK 10 AUDIO
TITLE "Noc komety"
PERFORMER "Budka Suflera"
INDEX 01 00:00:00
FILE "11 - Jolka, Jolka pamiętasz.wav" WAVE
TRACK 11 AUDIO
TITLE "Jolka, Jolka pamiętasz"
PERFORMER "Budka Suflera"
INDEX 01 00:00:00
REM GENRE Rock
REM DATE 2000
REM DISCID 970DFB0B
REM COMMENT "ExactAudioCopy v0.99pb5"
PERFORMER "Budka Suflera"
TITLE "Live At Carnegie Hall Vol. 2"
FILE "01 - Jeden Raz.wav" WAVE
TRACK 01 AUDIO
TITLE "Jeden Raz"
PERFORMER "Budka Suflera"
INDEX 01 00:00:00
FILE "02 - Gdzie Jest Ta Krew.wav" WAVE
TRACK 02 AUDIO
TITLE "Gdzie Jest Ta Krew"
PERFORMER "Budka Suflera"
INDEX 01 00:00:00
FILE "03 - Głodny.wav" WAVE
TRACK 03 AUDIO
TITLE "Głodny"
PERFORMER "Budka Suflera"
INDEX 01 00:00:00
FILE "04 - Strefa Półcienia.wav" WAVE
TRACK 04 AUDIO
TITLE "Strefa Półcienia"
PERFORMER "Budka Suflera"
INDEX 01 00:00:00
FILE "05 - Takie Tango.wav" WAVE
TRACK 05 AUDIO
TITLE "Takie Tango"
PERFORMER "Budka Suflera"
INDEX 01 00:00:00
FILE "06 - Memu Miastu Na Do Widzenia.wav" WAVE
TRACK 06 AUDIO
TITLE "Memu Miastu Na Do Widzenia"
PERFORMER "Budka Suflera"
INDEX 01 00:00:00
FILE "07 - Martwe Morze.wav" WAVE
TRACK 07 AUDIO
TITLE "Martwe Morze"
PERFORMER "Budka Suflera"
INDEX 01 00:00:00
FILE "08 - Cisza Jak Ta.wav" WAVE
TRACK 08 AUDIO
TITLE "Cisza Jak Ta"
PERFORMER "Budka Suflera"
INDEX 01 00:00:00
FILE "09 - Jest Taki Samotny Dom.wav" WAVE
TRACK 09 AUDIO
TITLE "Jest Taki Samotny Dom"
PERFORMER "Budka Suflera"
INDEX 01 00:00:00
FILE "10 - V Bieg.wav" WAVE
TRACK 10 AUDIO
TITLE "V Bieg"
PERFORMER "Budka Suflera"
INDEX 01 00:00:00
FILE "11 - Cień Wielkiej Góry.wav" WAVE
TRACK 11 AUDIO
TITLE "Cień Wielkiej Góry"
PERFORMER "Budka Suflera"
INDEX 01 00:00:00
-----------------------

DON'T MODIFY THIS FILE

-----------------------

PERFORMER: auCDtect Task Manager, ver. 1.5.1RC6 build 1.5.1.7
Copyright (c) 2008-2010 y-soft. All rights reserved
http://y-soft.org

ANALYZER: auCDtect: CD records authenticity detector, version 0.8.2
Copyright (c) 2004 Oleg Berngardt. All rights reserved.
Copyright (c) 2004 Alexander Djourik. All rights reserved.

FILE: 11 - Jolka, Jolka pamiętasz.flac
Size: 48918240 Hash: CEA853729772DAF3E9E23A383030C642 Accuracy: -m0
Conclusion: CDDA 100%
Signature: AAE03D0F71AC0195B49B59947B5CADB03AF500B3
FILE: 10 - Noc komety.flac
Size: 34809953 Hash: C74F6A0EBE40F3F07EF9537F9E3AB1FB Accuracy: -m0
Conclusion: CDDA 99%
Signature: B9B10A9BE2E8F2AEEE774707915032C970E55C03
FILE: 09 - Czas ołowiu.flac
Size: 40682268 Hash: 11C7678CB9850B4454B8E42AC037B5DC Accuracy: -m0
Conclusion: CDDA 99%
Signature: 384F435FCAB276A8282028270AC6CBB8CADD4F9A
FILE: 08 - Nie wierz nigdy kobiecie.flac
Size: 41797584 Hash: 8C01459E7B6EC5C6EFD2E671CDB5D40E Accuracy: -m0
Conclusion: CDDA 100%
Signature: 5F0ADD7EEEE15DC2080692B835E0C9954B3D59CC
FILE: 07 - Za ostatni grosz.flac
Size: 33186833 Hash: 29559F4DA89B72CD325AE649405ACD54 Accuracy: -m0
Conclusion: CDDA 100%
Signature: 0C4547D00F685590BF37225B9BC84778D4033F6E
FILE: 06 - Rock'n Roll na dobry początek.flac
Size: 35876190 Hash: 611061A798A8C5BE2F98F25337C59982 Accuracy: -m0
Conclusion: CDDA 100%
Signature: 581A6B8ED838B36DA34F2A1623A8B25A6B30A9C9
FILE: 05 - To nie tak miało być.flac
Size: 40582076 Hash: 84FD9C3EBB011CCC3288FC90759C20C4 Accuracy: -m0
Conclusion: CDDA 99%
Signature: ACCC9B775534D39D980170BBAB17E330AEEEC1C8
FILE: 04 - Geniusz blues.flac
Size: 40986774 Hash: DCD450F83984DF481617B067F1A10757 Accuracy: -m0
Conclusion: CDDA 100%
Signature: 92481C239DC8CA3D84D6BD5E938CC3CE74C4277B
FILE: 03 - Cały mój zgiełk.flac
Size: 40674847 Hash: F7BABCD55B7D59112AE41DB736D010AF Accuracy: -m0
Conclusion: CDDA 100%
Signature: 1BAEA25698044D28FADF700ED38E26AD34060471
FILE: 02 - Sen o dolinie.flac
Size: 27576058 Hash: DC24571B708C300DB0530E994958DF4F Accuracy: -m0
Conclusion: CDDA 99%
Signature: F58F94D0C41A4433F7AEA240429EB00FE6E75162
FILE: 01 - Młode lwy.flac
Size: 55859642 Hash: 189F16220A10DBF7E7D2647171318283 Accuracy: -m0
Conclusion: CDDA 100%
Signature: 65827078B2170ACD563B871223D942E6E651D905
-----------------------

DON'T MODIFY THIS FILE

-----------------------

PERFORMER: auCDtect Task Manager, ver. 1.5.1RC6 build 1.5.1.7
Copyright (c) 2008-2010 y-soft. All rights reserved
http://y-soft.org

ANALYZER: auCDtect: CD records authenticity detector, version 0.8.2
Copyright (c) 2004 Oleg Berngardt. All rights reserved.
Copyright (c) 2004 Alexander Djourik. All rights reserved.

FILE: 11 - Cień Wielkiej Góry.flac
Size: 51157518 Hash: 937C7117823CDB0F032DC84F61AF4AAA Accuracy: -m0
Conclusion: CDDA 100%
Signature: EA941D3B5203F150DFD1589FE01DB47AE0809B33
FILE: 10 - V Bieg.flac
Size: 47325589 Hash: BDD6F34952C5930CBE8608F511970FB0 Accuracy: -m0
Conclusion: CDDA 100%
Signature: 81EB5111B8793E501D6E199C43EE9AE42BA19E6E
FILE: 09 - Jest Taki Samotny Dom.flac
Size: 66547689 Hash: BDD72E19DA1082897CFA7999D7636FB1 Accuracy: -m0
Conclusion: CDDA 100%
Signature: 0FA2249C15D0ADF51FD9CC13B1A4777A543359CD
FILE: 08 - Cisza Jak Ta.flac
Size: 40255129 Hash: 8D60016A0301996D42724F36238DD2AE Accuracy: -m0
Conclusion: CDDA 100%
Signature: 07D23479DAA159086416016D7840C6C0BAB1EC78
FILE: 07 - Martwe Morze.flac
Size: 35593177 Hash: FDF63084181FE136448FA3FC76508C17 Accuracy: -m0
Conclusion: CDDA 100%
Signature: B42A9CE2993D057AB170A9FEDB1905B4543E1A02
FILE: 06 - Memu Miastu Na Do Widzenia.flac
Size: 28793069 Hash: 58961DA3E3DC673210BC1F5F142D1335 Accuracy: -m0
Conclusion: CDDA 100%
Signature: E68F0406383C26DBDBB2E121E521C2C26ED41D54
FILE: 05 - Takie Tango.flac
Size: 36950212 Hash: 36DF673B2182A3B6AAA99F2BBF095374 Accuracy: -m0
Conclusion: CDDA 100%
Signature: 6F5456B5EDFC4325C59DBE511BF6F13D90CF31DB
FILE: 04 - Strefa Półcienia.flac
Size: 36145013 Hash: 55036F85DD12F8518E8927EBC8967EFC Accuracy: -m0
Conclusion: CDDA 100%
Signature: C26F40BED4DD0B29D2A436C8178AA458D3C874F3
FILE: 03 - Głodny.flac
Size: 48587415 Hash: 6F7BFE5231A6FD9C2D70C3379121E5BF Accuracy: -m0
Conclusion: CDDA 100%
Signature: E0835C58415F6F2CECB72547803FAE75E1230AA1
FILE: 02 - Gdzie Jest Ta Krew.flac
Size: 35682050 Hash: A5DC92BB08C5B58A33305869AA741C0F Accuracy: -m0
Conclusion: CDDA 100%
Signature: 0A45F5185857BAB82722A08817EDC52F398DEB04
FILE: 01 - Jeden Raz.flac
Size: 29690367 Hash: DB7B304E65B01291B56ABCD70EFE9E2E Accuracy: -m0
Conclusion: CDDA 100%
Signature: 5440E5F60DBDA58D700F3D82519212B97D2B4656
Концерт в Нью-Йорке 18 ноября 1999 года
Krzysztof Cugowski – śpiew
Romuald Czystaw – śpiew
Felicjan Andrzejczak – śpiew
Romuald Lipko – instrumenty klawiszowe / gitara basowa
Mieczysław Jurecki – gitara basowa / gitara rytmiczna
Marek Raduli – gitara solowa
Tomasz Zeliszewski – perkusja
Ewa Brachun – chórek
Aleksandra Chludek – chórek
Katarzyna Pysiak – chórek


Трекер:  [ 12-Янв-2013 17:25 ]

  

Скачать .torrent

Размер .torrent файла 19 KB


Размер: 856 MB
Хэш (hash) релиза: ff17d3c877b4f7fbb1181ae993cb551c48e2ad1f

Еще никто не оставлял запись к записи скачать торрент Budka Suflera - Live at Carnegie Hall - 2000, FLAC . Будь первым!

!Обратная связь