Скачать через торрент музыку Vulture Cavalry - Blackwing - 2003, бесплатно без регистрации torrent

Если у вас наблюдаются проблемы со скриншотами, переходом по ссылками, скачиванием торрентов - проблемы в блокировщике рекламы AdBlock. #хорошегоДня!


Статистика раздачи
Размер:  455 MB   |    Зарегистрирован:  4 года 7 месяцев   |    .torrent скачан:  53 раза   |   
Раздают:  1  
   
Загрузка...
 
Автор Сообщение

Galfimbul

avatar Galfimbul


Vulture Cavalry / Blackwing

Жанр: Hard Rock
Страна-производитель диска: Sweden
Год издания: 2003
Издатель (лейбл): SoundPort
Номер по каталогу: Prod nr SP100103
Аудиокодек: FLAC (*.flac)
Тип рипа: image+.cue
Битрейт аудио: lossless
Продолжительность: 55:22:57
Источник (релизер): Оригинальный CD
Наличие сканов в содержимом раздачи: да
Треклист:
01 - Beats me [0:05:25.16]
02 - The last move [0:03:33.64]
03 - Blackwing [0:06:15.64]
04 - Living loud [0:03:19.17]
05 - Something meaner [0:04:38.30]
06 - A quest to get through [0:04:09.25]
07 - Watchin' you [0:03:37.34]
08 - Gravity greetings [0:03:36.18]
09 - Looks like invisible [0:05:18.08]
10 - Gone in the morning [0:04:24.06]
11 - A wireless heart [0:04:03.59]
Exact Audio Copy V0.99 prebeta 5 from 4. May 2009

Отчёт EAC об извлечении, выполненном 12. января 2013, 12:18

Vulture Cavalry / Blackwing

Дисковод: PLEXTOR DVDR PX-880SA Adapter: 4 ID: 2

Режим чтения : ДостоверностьИспользование точного потока : ДаОтключение кэша аудио : ДаИспользование указателей C2 : Нет

Коррекция смещения при чтении : 6Способность читать области Lead-in и Lead-out : НетЗаполнение пропущенных сэмплов тишиной : ДаУдаление блоков с тишиной в начале и конце : НетПри вычислениях CRC использовались нулевые сэмплы : ДаИнтерфейс : Установленный внешний ASPI-интерфейс

Выходной формат : Внутренние WAV-операцииФормат сэмплов : 44.100 Гц; 16 бит; стерео

TOC извлечённого CD

Трек | Старт | Длительность | Начальный сектор | Конечный сектор --------------------------------------------------------------------- 1 | 0:00.00 | 5:25.16 | 0 | 24390 2 | 5:25.16 | 3:33.64 | 24391 | 40429 3 | 8:59.05 | 6:15.64 | 40430 | 68618 4 | 15:14.69 | 3:19.17 | 68619 | 83560 5 | 18:34.11 | 4:38.30 | 83561 | 104440 6 | 23:12.41 | 4:09.25 | 104441 | 123140 7 | 27:21.66 | 3:37.34 | 123141 | 139449 8 | 30:59.25 | 3:36.18 | 139450 | 155667 9 | 34:35.43 | 5:18.08 | 155668 | 179525 10 | 39:53.51 | 4:24.06 | 179526 | 199331 11 | 44:17.57 | 4:03.59 | 199332 | 217615 12 | 50:53.41 | 7:01.16 | 229016 | 260606

Характеристики диапазона извлечения и сообщения об ошибках

Выбранный диапазон

Имя файла M:\СВОИ\Vulture Cavalry - Blackwing - 2003\Vulture Cavalry - Blackwing.wav

Пиковый уровень 99.0 % Качество диапазона 99.9 % CRC теста 8EA8BC88 CRC копии 8EA8BC88 Копирование... OK

Ошибок не произошло

AccurateRip: сводка

Трек 1 точность не определена (достоверность 1) [75F57581], AccurateRip вернул [4D259665]Трек 2 точность не определена (достоверность 1) [68C969F6], AccurateRip вернул [1CB13F1A]Трек 3 точность не определена (достоверность 1) [EAF58889], AccurateRip вернул [81780B4B]Трек 4 точность не определена (достоверность 1) [54E87F87], AccurateRip вернул [CE3FF3F5]Трек 5 точность не определена (достоверность 1) [65A86834], AccurateRip вернул [996876A0]Трек 6 точность не определена (достоверность 1) [1078D927], AccurateRip вернул [25306D7F]Трек 7 точность не определена (достоверность 1) [2D6A738D], AccurateRip вернул [1E15FC59]Трек 8 точность не определена (достоверность 1) [26BD2F64], AccurateRip вернул [054203A8]Трек 9 точность не определена (достоверность 1) [27B10812], AccurateRip вернул [6EB923B2]Трек 10 точность не определена (достоверность 1) [D220DA3B], AccurateRip вернул [3C429BF5]Трек 11 точность не определена (достоверность 1) [B1078E9B], AccurateRip вернул [0C04E7D3]

Ни один трек не прошёл проверки на точностьВ вашей базе может быть иной вариант штамповки диска

Конец отчёта
REM GENRE "Hard Rock"REM DATE 2003REM DISCID A60D920CREM COMMENT "ExactAudioCopy v0.99pb5"PERFORMER "Vulture Cavalry"TITLE "Blackwing"FILE "Vulture Cavalry - Blackwing.flac" WAVE TRACK 01 AUDIO TITLE "Vulture Cavalry - 01 - Beats me" PERFORMER "Vulture Cavalry" INDEX 01 00:00:00 TRACK 02 AUDIO TITLE "Vulture Cavalry - 02 - The last move" PERFORMER "Vulture Cavalry" INDEX 00 05:24:73 INDEX 01 05:25:16 TRACK 03 AUDIO TITLE "Vulture Cavalry - 03 - Blackwing" PERFORMER "Vulture Cavalry" INDEX 00 08:58:60 INDEX 01 08:59:05 TRACK 04 AUDIO TITLE "Vulture Cavalry - 04 - Living loud" PERFORMER "Vulture Cavalry" INDEX 00 15:14:48 INDEX 01 15:14:69 TRACK 05 AUDIO TITLE "Vulture Cavalry - 05 - Something meaner" PERFORMER "Vulture Cavalry" INDEX 00 18:33:66 INDEX 01 18:34:11 TRACK 06 AUDIO TITLE "Vulture Cavalry - 06 - A quest to get through" PERFORMER "Vulture Cavalry" INDEX 00 23:12:20 INDEX 01 23:12:41 TRACK 07 AUDIO TITLE "Vulture Cavalry - 07 - Watchin' you" PERFORMER "Vulture Cavalry" INDEX 00 27:21:46 INDEX 01 27:21:66 TRACK 08 AUDIO TITLE "Vulture Cavalry - 08 - Gravity greetings" PERFORMER "Vulture Cavalry" INDEX 00 30:59:05 INDEX 01 30:59:25 TRACK 09 AUDIO TITLE "Vulture Cavalry - 09 - Looks like invisible" PERFORMER "Vulture Cavalry" INDEX 00 34:35:23 INDEX 01 34:35:43 TRACK 10 AUDIO TITLE "Vulture Cavalry - 10 - Gone in the morning" PERFORMER "Vulture Cavalry" INDEX 00 39:53:30 INDEX 01 39:53:51 TRACK 11 AUDIO TITLE "Vulture Cavalry - 11 - A wireless heart" PERFORMER "Vulture Cavalry" INDEX 00 44:17:36 INDEX 01 44:17:57
-----------------------

DON'T MODIFY THIS FILE

-----------------------

PERFORMER: auCDtect Task Manager, ver. 1.5.1RC4 build 1.5.1.5Copyright (c) 2008-2010 y-soft. All rights reservedhttp://y-soft.org

ANALYZER: auCDtect: CD records authenticity detector, version 0.8.2Copyright (c) 2004 Oleg Berngardt. All rights reserved.Copyright (c) 2004 Alexander Djourik. All rights reserved.

FILE: Vulture Cavalry - Blackwing.flac Size: 395517105 Hash: FC786C1D8C3FD73F32CA6AFF342680A7 Accuracy: -m0 Conclusion: CDDA 100% Signature: 1AEEA8C30E5656F7A905D7309502883EB625721F
Формат: MPG
Видео кодек: MPEG Video Decoder
Аудио кодек: ffdshou Audio Decoder
Видео: 384X288 (1.46:1)
Аудио: 44100 Hz, 2 ch, 192 Kbps


Трекер:  [ 12-Янв-2013 17:25 ]

  

Скачать .torrent

Размер .torrent файла 19 KB


Размер: 455 MB
Хэш (hash) релиза: 2ec78309a5777bdc5bcd1d695c0329583ae767a9

Торренты, похожие на Vulture Cavalry - Blackwing - 2003, скачать торрент

Форум Название Автор Размер S L Добавлен
Зарубежный Rock ·· (Hard Rock) Vulture Cavalry - Blackwing - 2003, MP3, 320 kbps Galfimbul 117492615112 MB 0 0 1358174160

17:36

14-Янв-13

Еще никто не оставлял запись к записи скачать торрент Vulture Cavalry - Blackwing - 2003, . Будь первым!

!Обратная связь