Скачать через торрент музыку Budka Suflera - Giganci tańczą - 1997 бесплатно без регистрации torrent

Если у вас наблюдаются проблемы со скриншотами, переходом по ссылками, скачиванием торрентов - проблемы в блокировщике рекламы AdBlock. #хорошегоДня!


Статистика раздачи
Размер:  332 MB   |    Зарегистрирован:  4 года 7 месяцев   |    .torrent скачан:  27 раз   |   
Раздают:  1  
   
Загрузка...
 
Автор Сообщение

Galfimbul

avatar Galfimbul


Budka Suflera / Giganci tańczą

Жанр: Rock
Страна-производитель диска: Austria
Год издания: 1997 (1986)
Издатель (лейбл): TA Music
Номер по каталогу: AATZ 024
Страна: Poland
Аудиокодек: FLAC (*.flac)
Тип рипа: image+.cue
Битрейт аудио: lossless
Продолжительность: 00:49:59
Источник (релизер): сеть
Наличие сканов в содержимом раздачи: да
Треклист:
1.Kwadratura koła 4:27
2.Gratuluję Ci 5:42
3.Giganci tańczą 5:13
4.Synowie Chin 4:47
5.Bez wstydu 5:12
6.W niewielu słowach 6:59
7.Zabite lata 3:54
8.Moja Alabama 5:01
9.Znikający punkt 3:45
10.Klaustrofobia 5:00
Exact Audio Copy V0.99 prebeta 5 from 4. May 2009

Sprawozdanie ze zgrywania programem EAC z 13. Września 2009, 11:04

Budka Suflera / Giganci tancza

Użyty napęd: HL-DT-STDVDRAM GSA-H12L Adapter: 4 ID: 0

Tryb odczytu: : BezpiecznyDokładny strumień : TakNeutralizacja bufora napędu : TakZwracanie błędów C2 : Nie

Korekta położenia dla odczytu : 667Nadczytywanie w obszarach LeadIn i LeadOut : NieDopełnianie ciszą brakujących próbek : TakUsuwanie początkowych i końcowych bloków ciszy : NieDo przeliczenia sumy kontrolnej CRC używane są próbki zerowe : NieInterfejs : Wewnętrzny interfejs Win32 dla Windows NT i 2000

Użyty format wyjściowy : Wewnętrzne procedury WAVFormat próbki : 44.100 Hz; 16 bitów; stereo

TOC zgranej płyty

Utwór | Początek | Długość | Sektor początkowy | Sektor końcowy ------------------------------------------------------------------ 1 | 0:00.00 | 4:26.47 | 0 | 19996 2 | 4:26.47 | 5:42.17 | 19997 | 45663 3 | 10:08.64 | 5:13.13 | 45664 | 69151 4 | 15:22.02 | 4:46.43 | 69152 | 90644 5 | 20:08.45 | 5:12.27 | 90645 | 114071 6 | 25:20.72 | 6:59.08 | 114072 | 145504 7 | 32:20.05 | 3:53.45 | 145505 | 163024 8 | 36:13.50 | 5:01.00 | 163025 | 185599 9 | 41:14.50 | 3:44.52 | 185600 | 202451 10 | 44:59.27 | 4:59.55 | 202452 | 224931

Stan i błędy zakresu

Wybrany zakres

Ścieżka pliku M:\4 na blog\Budka Suflera - Giganci tancza\Budka Suflera - Giganci tancza.wav

Poziom wysterowania 100.0 % Jakość zakresu 100.0 % CRC testowana 38AFA5FB CRC kopii 38AFA5FB Kopia bezbłędna

Nie było błędów

Podsumowanie AccurateRip

Nagranie 1 nie można zweryfikować jako akuratne (wiarygodność 1) [BC66B315], według AccurateRip [B6CC96CB]Nagranie 2 nie można zweryfikować jako akuratne (wiarygodność 1) [D279BC24], według AccurateRip [3C3497B7]Nagranie 3 nie można zweryfikować jako akuratne (wiarygodność 1) [81E53D7A], według AccurateRip [8F0F6CAA]Nagranie 4 nie można zweryfikować jako akuratne (wiarygodność 1) [C8BD9857], według AccurateRip [643C46F6]Nagranie 5 nie można zweryfikować jako akuratne (wiarygodność 1) [3AB8375E], według AccurateRip [54C2E51D]Nagranie 6 nie można zweryfikować jako akuratne (wiarygodność 1) [3103E58A], według AccurateRip [89E4690F]Nagranie 7 nie można zweryfikować jako akuratne (wiarygodność 1) [D199F217], według AccurateRip [B572A539]Nagranie 8 nie można zweryfikować jako akuratne (wiarygodność 1) [15AA611D], według AccurateRip [6CBDBCEB]Nagranie 9 nie można zweryfikować jako akuratne (wiarygodność 1) [2E2318AB], według AccurateRip [4717711B]Nagranie 10 nie można zweryfikować jako akuratne (wiarygodność 1) [31805BBE], według AccurateRip [2F527C5D]

Nie można potwierdzić akuratności żadnego nagraniaPrawdopodobnie to jest inne tłoczenie płyty od tego, które znajduje się w bazie danych

Koniec raportu
Переиздание винила 1986 года (треки 1-8) + бонус (треки 9,10)
Krzysztof Cugowski – wokal
Romuald Lipko – instrumenty klawiszowe
Tomasz Zeliszewski – perkusja
Krzysztof Mandziara – gitara
Piotr Płecha – gitara basowa
Гость:
Józef Nowakowski – perkusja


Трекер:  [ 12-Янв-2013 17:25 ]

  

Скачать .torrent

Размер .torrent файла 14 KB


Размер: 332 MB
Хэш (hash) релиза: 03fb7c91afeed48a96edb654c8e16d066d99a9be

Еще никто не оставлял запись к записи скачать торрент Budka Suflera - Giganci tańczą - 1997 . Будь первым!

!Обратная связь