Скачать через торрент музыку Ten Years After - A Space in Time бесплатно без регистрации torrent

Если у вас наблюдаются проблемы со скриншотами, переходом по ссылками, скачиванием торрентов - проблемы в блокировщике рекламы AdBlock. #хорошегоДня!


Статистика раздачи
Размер:  552 MB   |    Зарегистрирован:  4 года 10 месяцев   |    .torrent скачан:  31 раз   |   
Раздают:  1  
   
Загрузка...
 
Автор Сообщение

Galfimbul

avatar Galfimbul


Ten Years After / A Space in Time

Жанр: Classic Rock / Blues Rock
Страна-производитель диска: Made in E.U.
Год издания: 2012
Издатель (лейбл): Chrysalis Records
Номер по каталогу: CHRX 1001
Страна: GB
Аудиокодек: FLAC (*.flac)
Тип рипа: image+.cue
Битрейт аудио: lossless
Продолжительность: 1:15:32
Источник (релизер): Собственный рип
Наличие сканов в содержимом раздачи: да
Треклист:
01. One of These Days (5:49)
02. Here They Come (4:37)
03. I'd Love to Change the World (3:44)
04. Over The Hill (2:30)
05. Baby Won't You Let Me Rock 'N' Roll You (2:23)
06. Once There Was A Time (3:23)
07. Let The Sky Fall (4:20)
08. Hard Monkeys (3:11)
09. I've Been There Too (5:45)
10. Uncle Jam (1:59)
Quad Mix to Stereo (1973)
11. One of These Days (5:56)
12. Here They Come (4:36)
13. I'd Love to Change the World (3:44)
14. Over The Hill (2:29)
15. Baby Won't You Let Me Rock 'N' Roll You (2:19)
16. Once There Was A Time (3:27)
17. Let The Sky Fall (4:19)
18. Hard Monkeys (3:13)
19. I've Been There Too (5:49)
20. Uncle Jam (1:55)
Exact Audio Copy V1.0 beta 1 from 15. November 2010

EAC extraction logfile from 12. January 2013, 14:48

Ten Years After / A Space In Time

Used drive : Optiarc DVD RW AD-7263S Adapter: 3 ID: 0

Read mode : SecureUtilize accurate stream : YesDefeat audio cache : YesMake use of C2 pointers : No

Read offset correction : 48Overread into Lead-In and Lead-Out : NoFill up missing offset samples with silence : YesDelete leading and trailing silent blocks : NoNull samples used in CRC calculations : YesUsed interface : Installed external ASPI interface

Used output format : User Defined EncoderSelected bitrate : 32 kBit/sQuality : HighAdd ID3 tag : NoCommand line compressor : C:\Program Files\Exact Audio Copy\Flac\flac.exeAdditional command line options : -T "DATE=%y" -T "GENRE=%m" -8 -V %s

TOC of the extracted CD

Track | Start | Length | Start sector | End sector --------------------------------------------------------- 1 | 0:00.00 | 5:58.00 | 0 | 26849 2 | 5:58.00 | 4:35.38 | 26850 | 47512 3 | 10:33.38 | 3:44.52 | 47513 | 64364 4 | 14:18.15 | 2:28.44 | 64365 | 75508 5 | 16:46.59 | 2:14.50 | 75509 | 85608 6 | 19:01.34 | 3:23.18 | 85609 | 100851 7 | 22:24.52 | 4:20.26 | 100852 | 120377 8 | 26:45.03 | 3:11.32 | 120378 | 134734 9 | 29:56.35 | 5:45.43 | 134735 | 160652 10 | 35:42.03 | 2:00.17 | 160653 | 169669 11 | 37:42.20 | 5:56.38 | 169670 | 196407 12 | 43:38.58 | 4:36.62 | 196408 | 217169 13 | 48:15.45 | 3:43.70 | 217170 | 233964 14 | 51:59.40 | 2:29.00 | 233965 | 245139 15 | 54:28.40 | 2:19.20 | 245140 | 255584 16 | 56:47.60 | 3:26.70 | 255585 | 271104 17 | 60:14.55 | 4:19.13 | 271105 | 290542 18 | 64:33.68 | 3:13.17 | 290543 | 305034 19 | 67:47.10 | 5:49.10 | 305035 | 331219 20 | 73:36.20 | 1:55.40 | 331220 | 339884

Range status and errors

Selected range

Filename C:\Documents and Settings\maxim\Мои документы\Ten Years After - A Space In Time.wav

Peak level 99.9 % Extraction speed 0.1 X Range quality 100.0 % Test CRC EF973B84 Copy CRC EF973B84 Copy OK

No errors occurred

AccurateRip summary

Track 1 not present in databaseTrack 2 not present in databaseTrack 3 not present in databaseTrack 4 not present in databaseTrack 5 not present in databaseTrack 6 not present in databaseTrack 7 not present in databaseTrack 8 not present in databaseTrack 9 not present in databaseTrack 10 not present in databaseTrack 11 not present in databaseTrack 12 not present in databaseTrack 13 not present in databaseTrack 14 not present in databaseTrack 15 not present in databaseTrack 16 not present in databaseTrack 17 not present in databaseTrack 18 not present in databaseTrack 19 not present in databaseTrack 20 not present in database

None of the tracks are present in the AccurateRip database

End of status report

==== Log checksum E585B2647A5231F33060F6A6622144230ACD2E1A961A29A879518EE7C85E7169 ====
Tracks 11-20 are new stereo mix down of the original 1973 SQ Quadrophonic edition, newly remixed by Peter Mew at Abbey Road.


Трекер:  [ 12-Янв-2013 17:25 ]

  

Скачать .torrent

Размер .torrent файла 12 KB


Размер: 552 MB
Хэш (hash) релиза: f91319d945b3ea89061037e0ec6b80734e64fd11

Торренты, похожие на Ten Years After - A Space in Time скачать торрент

Форум Название Автор Размер S L Добавлен
Rосk | Mеtаl | Аltеrnаtivе, Рunk, Indереndеnt (losslеss) ·· (Classic Rock / Blues Rock) Ten Years After 1971-A Space in Time [2011, Audio Fidelity AFZ 112, 24 Karat Gold CD], FLAC (image+.cue), lossless Galfimbul 271108595259 MB 0 0 1323980569

23:22

15-Дек-11

Еще никто не оставлял запись к записи скачать торрент Ten Years After - A Space in Time . Будь первым!

!Обратная связь