..."/> ...">

Скачать через торрент музыку Netherworld - Netherworld бесплатно без регистрации torrent

Если у вас наблюдаются проблемы со скриншотами, переходом по ссылками, скачиванием торрентов - проблемы в блокировщике рекламы AdBlock. #хорошегоДня!


Статистика раздачи
Размер:  390 MB   |    Зарегистрирован:  4 года 7 месяцев   |    .torrent скачан:  30 раз   |   
Раздают:  1  
   
Загрузка...
 
Автор Сообщение

Galfimbul

avatar Galfimbul


Netherworld / Netherworld (In the Following Half-light)

Жанр: Symphonic Prog
Страна-производитель диска: Russia
Год издания: 1981
Издатель (лейбл): MALS (2007)
Номер по каталогу: 240
Страна: US
Аудиокодек: FLAC (*.flac)
Тип рипа: tracks+.cue
Битрейт аудио: lossless
Продолжительность: 54:26
Источник (релизер): My CD
Наличие сканов в содержимом раздачи: да
Треклист:
Part I - Songs From "In the Following Half-light"
1. Too Hard to Forget (5:14)
2. Son of Sam (6:08)
3. Straight Into Infinity (5:47)
4. Maybe If They Burn Me (4:31)
5. Isle of Man (6:53)
6. A Matter of Time (7:44)
7. Sargasso (7:58)
Part II - Cumulo Nimbus Instrumentals (bonus tracks)
8. The Approaching Storm (3:59)
9. In the Mist (2:01)
10. Among the Clouds (3:38)
Exact Audio Copy V1.0 beta 3 from 29. August 2011

EAC extraction logfile from 11. January 2013, 19:38

Netherworld / Netherworld

Used drive : Optiarc DVD RW AD-7560A Adapter: 0 ID: 0

Read mode : SecureUtilize accurate stream : YesDefeat audio cache : YesMake use of C2 pointers : No

Read offset correction : 6Overread into Lead-In and Lead-Out : NoFill up missing offset samples with silence : YesDelete leading and trailing silent blocks : NoNull samples used in CRC calculations : YesUsed interface : Native Win32 interface for Win NT & 2000Gap handling : Appended to previous track

Used output format : User Defined EncoderSelected bitrate : 1024 kBit/sQuality : HighAdd ID3 tag : NoCommand line compressor : C:\Program Files\Exact Audio Copy\Flac\flac.exeAdditional command line options : -V -8 -T "Genre=%genre%" -T "Artist=%artist%" -T "Title=%title%" -T "Album=%albumtitle%" -T "Date=%year%" -T "Tracknumber=%tracknr%" -T "Comment=%comment%" %source%

TOC of the extracted CD

Track | Start | Length | Start sector | End sector --------------------------------------------------------- 1 | 0:00.00 | 5:17.26 | 0 | 23800 2 | 5:17.26 | 6:58.07 | 23801 | 55157 3 | 12:15.33 | 5:50.62 | 55158 | 81469 4 | 18:06.20 | 4:07.10 | 81470 | 100004 5 | 22:13.30 | 6:11.25 | 100005 | 127854 6 | 28:24.55 | 7:55.47 | 127855 | 163526 7 | 36:20.27 | 7:46.09 | 163527 | 198485 8 | 44:06.36 | 4:39.23 | 198486 | 219433 9 | 48:45.59 | 1:59.51 | 219434 | 228409 10 | 50:45.35 | 3:41.35 | 228410 | 245019

Track 1

Filename D:\Veushka\Netherworld - Netherworld (In the Following Half-light) 1981\01. Too Hard to Forget.wav

Pre-gap length 0:00:02.00

Peak level 100.0 % Extraction speed 2.8 X Track quality 100.0 % Test CRC 4AE3AD55 Copy CRC 4AE3AD55 Cannot be verified as accurate (confidence 2) [AD3B6028], AccurateRip returned [209854FE] (AR v2) Copy OK

Track 2

Filename D:\Veushka\Netherworld - Netherworld (In the Following Half-light) 1981\02. Son of Sam.wav

Pre-gap length 0:00:02.13

Peak level 91.4 % Extraction speed 3.4 X Track quality 100.0 % Test CRC 90185F71 Copy CRC 90185F71 Cannot be verified as accurate (confidence 2) [9D34F9EE], AccurateRip returned [C5BF6153] (AR v2) Copy OK

Track 3

Filename D:\Veushka\Netherworld - Netherworld (In the Following Half-light) 1981\03. Straight Into Infinity.wav

Pre-gap length 0:00:02.13

Peak level 88.7 % Extraction speed 3.7 X Track quality 100.0 % Test CRC 1392FAEA Copy CRC 1392FAEA Cannot be verified as accurate (confidence 2) [7482A72C], AccurateRip returned [8766F49E] (AR v2) Copy OK

Track 4

Filename D:\Veushka\Netherworld - Netherworld (In the Following Half-light) 1981\04. Maybe If They Burn Me.wav

Pre-gap length 0:00:02.13

Peak level 96.7 % Extraction speed 3.8 X Track quality 100.0 % Test CRC A6C239AE Copy CRC A6C239AE Cannot be verified as accurate (confidence 2) [A654F1AD], AccurateRip returned [0ABA946A] (AR v2) Copy OK

Track 5

Filename D:\Veushka\Netherworld - Netherworld (In the Following Half-light) 1981\05. Isle of Man.wav

Pre-gap length 0:00:02.13

Peak level 94.0 % Extraction speed 4.3 X Track quality 100.0 % Test CRC FBA3086D Copy CRC FBA3086D Cannot be verified as accurate (confidence 2) [0A82A6FB], AccurateRip returned [AED0DE9B] (AR v2) Copy OK

Track 6

Filename D:\Veushka\Netherworld - Netherworld (In the Following Half-light) 1981\06. A Matter of Time.wav

Pre-gap length 0:00:02.13

Peak level 93.1 % Extraction speed 4.5 X Track quality 100.0 % Test CRC 79DDFCF6 Copy CRC 79DDFCF6 Cannot be verified as accurate (confidence 2) [0EA660DF], AccurateRip returned [CF5BCDDE] (AR v2) Copy OK

Track 7

Filename D:\Veushka\Netherworld - Netherworld (In the Following Half-light) 1981\07. Sargasso.wav

Pre-gap length 0:00:02.13

Peak level 97.0 % Extraction speed 4.6 X Track quality 99.9 % Test CRC 86EC1DE4 Copy CRC 86EC1DE4 Cannot be verified as accurate (confidence 2) [36852E8F], AccurateRip returned [C0209D34] (AR v2) Copy OK

Track 8

Filename D:\Veushka\Netherworld - Netherworld (In the Following Half-light) 1981\08. Cumulo Nimbus, Part 1- The Approaching Storm.wav

Pre-gap length 0:00:02.13

Peak level 95.4 % Extraction speed 4.9 X Track quality 100.0 % Test CRC F2565DA6 Copy CRC F2565DA6 Cannot be verified as accurate (confidence 2) [E797D901], AccurateRip returned [9FCC4086] (AR v2) Copy OK

Track 9

Filename D:\Veushka\Netherworld - Netherworld (In the Following Half-light) 1981\09. Cumulo Nimbus, Part 2- In the Mist.wav

Pre-gap length 0:00:01.60

Peak level 67.8 % Extraction speed 4.6 X Track quality 100.0 % Test CRC 1DF68174 Copy CRC 1DF68174 Cannot be verified as accurate (confidence 2) [909AD665], AccurateRip returned [B8C50745] (AR v2) Copy OK

Track 10

Filename D:\Veushka\Netherworld - Netherworld (In the Following Half-light) 1981\10. Cumulo Nimbus, Part 3- Among the Clouds.wav

Pre-gap length 0:00:01.60

Peak level 90.1 % Extraction speed 4.2 X Track quality 99.9 % Test CRC 6E69742E Copy CRC 6E69742E Cannot be verified as accurate (confidence 2) [4472F189], AccurateRip returned [4BAC07E0] (AR v2) Copy OK

No tracks could be verified as accurateYou may have a different pressing from the one(s) in the database

No errors occurred

End of status report

==== Log checksum 4744EAA5501ED3C331D0BDC5592ABCFEE8520FBAEC5CF13C9F88F9E74B0ACAC6 ====
REM GENRE "Progressive Rock"REM DATE 1981REM DISCID 8E0CC20AREM COMMENT "ExactAudioCopy v1.0b3"PERFORMER "Netherworld"TITLE "Netherworld"FILE "01. Too Hard to Forget.wav" WAVE TRACK 01 AUDIO TITLE "Too Hard to Forget" PERFORMER "Netherworld" FLAGS DCP INDEX 01 00:00:00 TRACK 02 AUDIO TITLE "Son of Sam" PERFORMER "Netherworld" FLAGS DCP INDEX 00 05:15:16FILE "02. Son of Sam.wav" WAVE INDEX 01 00:00:00 TRACK 03 AUDIO TITLE "Straight Into Infinity" PERFORMER "Netherworld" FLAGS DCP INDEX 00 06:55:72FILE "03. Straight Into Infinity.wav" WAVE INDEX 01 00:00:00 TRACK 04 AUDIO TITLE "Maybe If They Burn Me" PERFORMER "Netherworld" FLAGS DCP INDEX 00 05:48:52FILE "04. Maybe If They Burn Me.wav" WAVE INDEX 01 00:00:00 TRACK 05 AUDIO TITLE "Isle of Man" PERFORMER "Netherworld" FLAGS DCP INDEX 00 04:05:00FILE "05. Isle of Man.wav" WAVE INDEX 01 00:00:00 TRACK 06 AUDIO TITLE "A Matter of Time" PERFORMER "Netherworld" FLAGS DCP INDEX 00 06:09:15FILE "06. A Matter of Time.wav" WAVE INDEX 01 00:00:00 TRACK 07 AUDIO TITLE "Sargasso" PERFORMER "Netherworld" FLAGS DCP INDEX 00 07:53:37FILE "07. Sargasso.wav" WAVE INDEX 01 00:00:00 TRACK 08 AUDIO TITLE "Cumulo Nimbus, Part 1: The Approaching Storm" PERFORMER "Netherworld" FLAGS DCP INDEX 00 07:43:74FILE "08. Cumulo Nimbus, Part 1- The Approaching Storm.wav" WAVE INDEX 01 00:00:00 TRACK 09 AUDIO TITLE "Cumulo Nimbus, Part 2: In the Mist" PERFORMER "Netherworld" FLAGS DCP INDEX 00 04:37:53FILE "09. Cumulo Nimbus, Part 2- In the Mist.wav" WAVE INDEX 01 00:00:00 TRACK 10 AUDIO TITLE "Cumulo Nimbus, Part 3: Among the Clouds" PERFORMER "Netherworld" FLAGS DCP INDEX 00 01:58:06FILE "10. Cumulo Nimbus, Part 3- Among the Clouds.wav" WAVE INDEX 01 00:00:00
[CUETools log; Date: 12.01.2013 9:22:13; Version: 2.1.4][CTDB TOCID: 22V3T4_.pkAMm7E_nouSG3WR6fY-] disk not present in database.[AccurateRip ID: 0016055e-00af5e33-8e0cc20a] found.Track [ CRC | V2 ] Status 01 [396c284e|ad3b6028] (0+0/2) No match 02 [94bfdb03|9d34f9ee] (0+0/2) No match 03 [d0e3806e|7482a72c] (0+0/2) No match 04 [c187ddca|a654f1ad] (0+0/2) No match 05 [1d9a7a3b|0a82a6fb] (0+0/2) No match 06 [0118c536|0ea660df] (0+0/2) No match 07 [e543ab04|36852e8f] (0+0/2) No match 08 [5fb185c6|e797d901] (0+0/2) No match 09 [5ac4d2b5|909ad665] (0+0/2) No match 10 [e3c612dc|4472f189] (0+0/2) No matchOffsetted by 664: 01 [209854fe] (2/2) Accurately ripped 02 [c5bf6153] (2/2) Accurately ripped 03 [8766f49e] (2/2) Accurately ripped 04 [0aba946a] (2/2) Accurately ripped 05 [aed0de9b] (2/2) Accurately ripped 06 [cf5bcdde] (2/2) Accurately ripped 07 [c0209d34] (2/2) Accurately ripped 08 [9fcc4086] (2/2) Accurately ripped 09 [b8c50745] (2/2) Accurately ripped 10 [4bac07e0] (2/2) Accurately ripped

Track Peak [ CRC32 ] [W/O NULL] [ LOG ] -- 100,0 [853B37FA] [04564D3D] 01 100,0 [4AE3AD55] [EB7D4840] CRC32 02 91,4 [90185F71] [BFCF0EAC] CRC32 03 88,7 [1392FAEA] [9ED0455E] CRC32 04 96,7 [A6C239AE] [8607B5A8] CRC32 05 94,0 [FBA3086D] [F8D15264] CRC32 06 93,1 [79DDFCF6] [BC6C9F37] CRC32 07 97,0 [86EC1DE4] [6FD5F02C] CRC32 08 95,4 [F2565DA6] [A7EEFD61] CRC32 09 67,8 [1DF68174] [419AB358] CRC32 10 90,1 [6E69742E] [DD17363A] CRC32
Они давно получили статус культовой группы США. Собравшись в 1975 и постоянно выступая, свой первый альбом они смогли выпустить только в 1981 (в период расцвета панка и новой волны). В музыке группы можно проследить намеки на GENESIS, что не удивительно, ведь они имели обыкновение играть их каверы на концертах. Их музыка (с широким диапазоном клавишных) часто заполняется захватывающими "полётами" синтезатора. Если Вы - поклонник современного и оригинального прог-рока (от мелодичного или драматического к более cложному или претенциозному) - этот диск ваш! (Рецензия МАЛС)
- Scott Stacy / guitars and backing vocals
- Randy Wilson / keyboards and backing vocals
- Pete Yarbrough / basses
- Denny Gorden / lead vocals
- Thayne Bolin / drums
- Kirk Long / guitars

Guests:
- Greg Schoppe / drums (on 1, 4, & 8)
- Robin Belvin / oboe (on 3 & 9)
- Pete Delevoryas / vibes (on 7)


Трекер:  [ 12-Янв-2013 17:16 ]

  

Скачать .torrent

Размер .torrent файла 17 KB


Размер: 390 MB
Хэш (hash) релиза: e9328f7496164e9999600a9a184306dbe057f846

Торренты, похожие на Netherworld - Netherworld скачать торрент

Форум Название Автор Размер S L Добавлен
Электронная музыка (lossless) ·· (Dub Techno, Ambient) [WEB] Eraldo Bernocchi & Netherworld - Himuro [Glacial Movements Records] - 2017, FLAC (tracks), lossless Galfimbul 274456119262 MB 0 0 1498775589

01:33

30-Июн-17

Rосk | Mеtаl | Аltеrnаtivе, Рunk, Indереndеnt (mр3) ·· (Death Metal) Desolate Shrine - Heart of the Netherworld (2015) [MP3, 320 kbps] Galfimbul 148770627142 MB 0 0 1421088389

21:46

12-Янв-15

Rосk | Mеtаl | Аltеrnаtivе, Рunk, Indереndеnt (mр3) ·· (Symphonic / Melodic Death Metal) HDK (Hate, Death, Kill) - Serenades of the Netherworld - 2014, MP3, 320 kbps Galfimbul 123009120117 MB 0 0 1411473892

15:04

23-Сен-14

Электронная музыка (lossless) ·· (Glacial Ambient) Netherworld - Alchemy Of Ice (WEB) - 2013, FLAC (tracks), lossless Galfimbul 186115281177 MB 0 0 1369665024

17:30

27-Май-13

Электронная музыка (mp3) ·· (Glacial Ambient) Netherworld - Alchemy Of Ice - 2013, MP3, 320 kbps Galfimbul 105067830100 MB 0 0 1369558129

11:48

26-Май-13

Электронная музыка (lossless) ·· (Trance, Breaks) LSG - Netherworld (Maxi-Single) [Hooj Choons] - 1997, FLAC (image+.cue), lossless Alik15 273579318261 MB 0 0 1291145785

22:36

30-Ноя-10

Электронная музыка (lossless) ·· (Trance) L.S.G. - Netherworld (incl. Oliver Lieb, Oliver Prime, John 00 Fleming and Incolumis Remixes) [JOOF024] [CDS] - 2006, FLAC (tracks), lossless Galfimbul 243026659232 MB 0 0 1291145426

22:30

30-Ноя-10

Еще никто не оставлял запись к записи скачать торрент Netherworld - Netherworld . Будь первым!

!Обратная связь