Скачать через торрент музыку Bob Dylan - Whats Real? бесплатно без регистрации torrent

Если у вас наблюдаются проблемы со скриншотами, переходом по ссылками, скачиванием торрентов - проблемы в блокировщике рекламы AdBlock. #хорошегоДня!


Статистика раздачи
Размер:  1.05 GB   |    Зарегистрирован:  4 года 7 месяцев   |    .torrent скачан:  35 раз   |   
Раздают:  1  
   
Загрузка...
 
Автор Сообщение

Galfimbul

avatar Galfimbul


Bob Dylan / What's Real? (Wembley Stadium, London, UK), 07 July 1984

Жанр: Folk-Rock
Год издания диска: 1994
Издатель (лейбл): TNT Studio
Номер по каталогу: 940154/155/156
Страна: EEC
Аудиокодек: FLAC (*.flac)
Тип рипа: tracks
Битрейт аудио: lossless
Продолжительность: 02:34:26
Источник (релизер): dime
Наличие сканов в содержимом раздачи: да

Треклист:

CD1 (00:49:15)
01. Highway 61 Revisited (06:04)
02. Jokerman (06:18)
03. All Along the Watchtower (03:57)
04. Just Like a Woman (05:26)
05. Maggie's Farm (05:12)
06. I and I (06:07)
07. License to Kill (04:06)
08. Just My Imagination [Greg Sutton] (06:09)
09. A Hard Rain's Gonna Fall (solo acoustic) (05:52)
Exact Audio Copy V0.99 prebeta 4 from 23. January 2008

EAC extraction logfile from 27. December 2009, 21:37

Unknown Artist / Unknown Title

Used drive : ATAPI iHAP322 8 Adapter: 4 ID: 1

Read mode : SecureUtilize accurate stream : YesDefeat audio cache : NoMake use of C2 pointers : No

Read offset correction : 6Overread into Lead-In and Lead-Out : NoFill up missing offset samples with silence : YesDelete leading and trailing silent blocks : NoNull samples used in CRC calculations : NoUsed interface : Installed external ASPI interfaceGap handling : Not detected, thus appended to previous track

Used output format : User Defined EncoderSelected bitrate : 768 kBit/sQuality : HighAdd ID3 tag : NoCommand line compressor : C:\Program Files\Exact Audio Copy\FLAC\FLAC.EXEAdditional command line options : -8 -V -T "ARTIST=%a" -T "TITLE=%t" -T "ALBUM=%g" -T "DATE=%y" -T "TRACKNUMBER=%n" -T "GENRE=%m" -T "COMMENT=%e" %s -o %d

TOC of the extracted CD

Track | Start | Length | Start sector | End sector --------------------------------------------------------- 1 | 0:00.01 | 6:04.47 | 1 | 27347 2 | 6:04.48 | 6:18.26 | 27348 | 55723 3 | 12:22.74 | 3:57.09 | 55724 | 73507 4 | 16:20.08 | 5:26.08 | 73508 | 97965 5 | 21:46.16 | 5:12.24 | 97966 | 121389 6 | 26:58.40 | 6:07.21 | 121390 | 148935 7 | 33:05.61 | 4:06.48 | 148936 | 167433 8 | 37:12.34 | 6:09.74 | 167434 | 195182 9 | 43:22.33 | 5:52.53 | 195183 | 221635

Track 1

Filename M:\New Torrentz\Bob Dylan - 1984-07-07 - London, England - What's Real (TNT)\Disc 1\Track01.wav

Peak level 81.9 % Track quality 100.0 % Copy CRC 5055A443 Copy OK

Track 2

Filename M:\New Torrentz\Bob Dylan - 1984-07-07 - London, England - What's Real (TNT)\Disc 1\Track02.wav

Peak level 79.3 % Track quality 100.0 % Copy CRC F2A17591 Copy OK

Track 3

Filename M:\New Torrentz\Bob Dylan - 1984-07-07 - London, England - What's Real (TNT)\Disc 1\Track03.wav

Peak level 81.5 % Track quality 100.0 % Copy CRC 6C7AB49B Copy OK

Track 4

Filename M:\New Torrentz\Bob Dylan - 1984-07-07 - London, England - What's Real (TNT)\Disc 1\Track04.wav

Peak level 72.1 % Track quality 99.9 % Copy CRC B00BCFA9 Copy OK

Track 5

Filename M:\New Torrentz\Bob Dylan - 1984-07-07 - London, England - What's Real (TNT)\Disc 1\Track05.wav

Peak level 97.2 % Track quality 100.0 % Copy CRC 62FF34B3 Copy OK

Track 6

Filename M:\New Torrentz\Bob Dylan - 1984-07-07 - London, England - What's Real (TNT)\Disc 1\Track06.wav

Peak level 99.4 % Track quality 99.9 % Copy CRC CFB5C2AD Copy OK

Track 7

Filename M:\New Torrentz\Bob Dylan - 1984-07-07 - London, England - What's Real (TNT)\Disc 1\Track07.wav

Peak level 82.8 % Track quality 100.0 % Copy CRC 05440ACB Copy OK

Track 8

Filename M:\New Torrentz\Bob Dylan - 1984-07-07 - London, England - What's Real (TNT)\Disc 1\Track08.wav

Peak level 86.5 % Track quality 100.0 % Copy CRC 9102900E Copy OK

Track 9

Filename M:\New Torrentz\Bob Dylan - 1984-07-07 - London, England - What's Real (TNT)\Disc 1\Track09.wav

Peak level 78.3 % Track quality 100.0 % Copy CRC A93CF117 Copy OK

No errors occurred

End of status report
AUDIOCHECKER v1.2 - by Dester - <a href="mailto:opdester@freemail.hu" class="postLink">opdester@freemail.hu</a>~~~~~~~~~~~~~~~~~

1 -===- G:\Torrents\Download files\Bob Dylan 1984-07-07 What's Real (London, England)\Disc 1\01 - Highway 61 Revisited.flac Extracted successfully Conclusion: This track looks like CDDA with probability 100%

2 -===- G:\Torrents\Download files\Bob Dylan 1984-07-07 What's Real (London, England)\Disc 1\02 - Jokerman.flac Extracted successfully Conclusion: This track looks like CDDA with probability 100%

3 -===- G:\Torrents\Download files\Bob Dylan 1984-07-07 What's Real (London, England)\Disc 1\03 - All Along the Watchtower.flac Extracted successfully Conclusion: This track looks like CDDA with probability 100%

4 -===- G:\Torrents\Download files\Bob Dylan 1984-07-07 What's Real (London, England)\Disc 1\04 - Just Like a Woman.flac Extracted successfully Conclusion: This track looks like CDDA with probability 99%

5 -===- G:\Torrents\Download files\Bob Dylan 1984-07-07 What's Real (London, England)\Disc 1\05 - Maggie's Farm.flac Extracted successfully Conclusion: This track looks like CDDA with probability 99%

6 -===- G:\Torrents\Download files\Bob Dylan 1984-07-07 What's Real (London, England)\Disc 1\06 - I and I.flac Extracted successfully Conclusion: This track looks like CDDA with probability 99%

7 -===- G:\Torrents\Download files\Bob Dylan 1984-07-07 What's Real (London, England)\Disc 1\07 - License to Kill.flac Extracted successfully Conclusion: This track looks like CDDA with probability 100%

8 -===- G:\Torrents\Download files\Bob Dylan 1984-07-07 What's Real (London, England)\Disc 1\08 - Just My Imagination [Greg Sutton].flac Extracted successfully Conclusion: This track looks like CDDA with probability 99%

9 -===- G:\Torrents\Download files\Bob Dylan 1984-07-07 What's Real (London, England)\Disc 1\09 - A Hard Rain's Gonna Fall (solo acoustic).flac Extracted successfully Conclusion: This track looks like CDDA with probability 100%
CD2 (01:06:08)

01. It's Alright, Ma (solo acoustic) (06:50)
02. Simple Twist of Fate (05:39)
03. Masters of War (10:28)
04. Enough is Enough (04:31)
05. Every Grain of Sand (05:53)
06. Like a Rolling Stone (09:38)
07. Mr. Tambourine Man (solo acoustic) (06:12)
08. Girl From the North Country (solo acoustic) (04:32)
09. It Ain't Me, Baby (solo acoustic) (05:23)
10. Tangled up in Blue (solo acoustic) (06:57)
Exact Audio Copy V0.99 prebeta 4 from 23. January 2008

EAC extraction logfile from 27. December 2009, 22:37

Unknown Artist / Unknown Title

Used drive : ATAPI iHAP322 8 Adapter: 4 ID: 1

Read mode : SecureUtilize accurate stream : YesDefeat audio cache : NoMake use of C2 pointers : No

Read offset correction : 6Overread into Lead-In and Lead-Out : NoFill up missing offset samples with silence : YesDelete leading and trailing silent blocks : NoNull samples used in CRC calculations : NoUsed interface : Installed external ASPI interfaceGap handling : Not detected, thus appended to previous track

Used output format : User Defined EncoderSelected bitrate : 768 kBit/sQuality : HighAdd ID3 tag : NoCommand line compressor : C:\Program Files\Exact Audio Copy\FLAC\FLAC.EXEAdditional command line options : -8 -V -T "ARTIST=%a" -T "TITLE=%t" -T "ALBUM=%g" -T "DATE=%y" -T "TRACKNUMBER=%n" -T "GENRE=%m" -T "COMMENT=%e" %s -o %d

TOC of the extracted CD

Track | Start | Length | Start sector | End sector --------------------------------------------------------- 1 | 0:00.01 | 6:57.41 | 1 | 31315 2 | 0:00.01 | 6:50.65 | 31316 | 62130 3 | 6:50.66 | 5:39.68 | 62131 | 87623 4 | 12:30.59 | 10:28.22 | 87624 | 134745 5 | 22:59.06 | 4:31.24 | 134746 | 155094 6 | 27:30.30 | 5:53.73 | 155095 | 181642 7 | 33:24.28 | 9:38.22 | 181643 | 225014 8 | 43:02.50 | 6:12.11 | 225015 | 252925 9 | 49:14.61 | 4:32.49 | 252926 | 273374 10 | 53:47.35 | 5:23.52 | 273375 | 297651

Track 1

Filename M:\New Torrentz\Bob Dylan - 1984-07-07 - London, England - What's Real (TNT)\Disc Whatthe fuck\Track01.wav

Peak level 100.0 % Track quality 100.0 % Copy CRC 2E6BF37B Copy OK

Track 2

Filename M:\New Torrentz\Bob Dylan - 1984-07-07 - London, England - What's Real (TNT)\Disc Whatthe fuck\Track02.wav

Peak level 82.6 % Track quality 100.0 % Copy CRC 702F70F5 Copy OK

Track 3

Filename M:\New Torrentz\Bob Dylan - 1984-07-07 - London, England - What's Real (TNT)\Disc Whatthe fuck\Track03.wav

Peak level 97.0 % Track quality 100.0 % Copy CRC 712A12A2 Copy OK

Track 4

Filename M:\New Torrentz\Bob Dylan - 1984-07-07 - London, England - What's Real (TNT)\Disc Whatthe fuck\Track04.wav

Peak level 98.8 % Track quality 99.9 % Copy CRC A68FB4E3 Copy OK

Track 5

Filename M:\New Torrentz\Bob Dylan - 1984-07-07 - London, England - What's Real (TNT)\Disc Whatthe fuck\Track05.wav

Peak level 83.9 % Track quality 99.9 % Copy CRC B7948237 Copy OK

Track 6

Filename M:\New Torrentz\Bob Dylan - 1984-07-07 - London, England - What's Real (TNT)\Disc Whatthe fuck\Track06.wav

Peak level 93.1 % Track quality 100.0 % Copy CRC D2819376 Copy OK

Track 7

Filename M:\New Torrentz\Bob Dylan - 1984-07-07 - London, England - What's Real (TNT)\Disc Whatthe fuck\Track07.wav

Peak level 99.7 % Track quality 100.0 % Copy CRC DD8D2D09 Copy OK

Track 8

Filename M:\New Torrentz\Bob Dylan - 1984-07-07 - London, England - What's Real (TNT)\Disc Whatthe fuck\Track08.wav

Peak level 95.0 % Track quality 100.0 % Copy CRC E3F374A0 Copy OK

Track 9

Filename M:\New Torrentz\Bob Dylan - 1984-07-07 - London, England - What's Real (TNT)\Disc Whatthe fuck\Track09.wav

Peak level 100.0 % Track quality 100.0 % Copy CRC A9EF6633 Copy OK

Track 10

Filename M:\New Torrentz\Bob Dylan - 1984-07-07 - London, England - What's Real (TNT)\Disc 1\Track10.wav

Peak level 73.6 % Track quality 100.0 % Copy CRC 5215A47F Copy OK

No errors occurred

End of status report
AUDIOCHECKER v1.2 - by Dester - <a href="mailto:opdester@freemail.hu" class="postLink">opdester@freemail.hu</a>~~~~~~~~~~~~~~~~~

01 -===- G:\Torrents\Download files\Bob Dylan 1984-07-07 What's Real (London, England)\Disc 2\01 - It's Alright, Ma (solo acoustic).flac Extracted successfully Conclusion: This track looks like CDDA with probability 100%

02 -===- G:\Torrents\Download files\Bob Dylan 1984-07-07 What's Real (London, England)\Disc 2\02 - Simple Twist of Fate.flac Extracted successfully Conclusion: This track looks like CDDA with probability 99%

03 -===- G:\Torrents\Download files\Bob Dylan 1984-07-07 What's Real (London, England)\Disc 2\03 - Masters of War.flac Extracted successfully Conclusion: This track looks like CDDA with probability 100%

04 -===- G:\Torrents\Download files\Bob Dylan 1984-07-07 What's Real (London, England)\Disc 2\04 - Enough is Enough.flac Extracted successfully Conclusion: This track looks like CDDA with probability 100%

05 -===- G:\Torrents\Download files\Bob Dylan 1984-07-07 What's Real (London, England)\Disc 2\05 - Every Grain of Sand.flac Extracted successfully Conclusion: This track looks like CDDA with probability 100%

06 -===- G:\Torrents\Download files\Bob Dylan 1984-07-07 What's Real (London, England)\Disc 2\06 - Like a Rolling Stone.flac Extracted successfully Conclusion: This track looks like CDDA with probability 100%

07 -===- G:\Torrents\Download files\Bob Dylan 1984-07-07 What's Real (London, England)\Disc 2\07 - Mr. Tambourine Man (solo acoustic).flac Extracted successfully Conclusion: This track looks like CDDA with probability 99%

08 -===- G:\Torrents\Download files\Bob Dylan 1984-07-07 What's Real (London, England)\Disc 2\08 - Girl From the North Country (solo acoustic).flac Extracted successfully Conclusion: This track looks like CDDA with probability 100%

09 -===- G:\Torrents\Download files\Bob Dylan 1984-07-07 What's Real (London, England)\Disc 2\09 - It Ain't Me, Baby (solo acoustic).flac Extracted successfully Conclusion: This track looks like CDDA with probability 99%

10 -===- G:\Torrents\Download files\Bob Dylan 1984-07-07 What's Real (London, England)\Disc 2\10 - Tangled up in Blue (solo acoustic).flac Extracted successfully Conclusion: This track looks like CDDA with probability 100%
CD3 (00:39:02)
01. Leopard Skin Pillbox Hat (06:38)
02. It's All Over Now, Baby Blue (04:38)
03. Tombstone Blues (05:41)
04. Senor (04:59)
05. The Times They Are a Changin' (07:37)
06. Blowin' in the Wind (03:27)
07. Knockin' On Heaven's Door (05:59)
Exact Audio Copy V0.99 prebeta 4 from 23. January 2008

EAC extraction logfile from 27. December 2009, 22:25

Unknown Artist / Unknown Title

Used drive : ATAPI iHAP322 8 Adapter: 4 ID: 1

Read mode : SecureUtilize accurate stream : YesDefeat audio cache : NoMake use of C2 pointers : No

Read offset correction : 6Overread into Lead-In and Lead-Out : NoFill up missing offset samples with silence : YesDelete leading and trailing silent blocks : NoNull samples used in CRC calculations : NoUsed interface : Installed external ASPI interfaceGap handling : Not detected, thus appended to previous track

Used output format : User Defined EncoderSelected bitrate : 768 kBit/sQuality : HighAdd ID3 tag : NoCommand line compressor : C:\Program Files\Exact Audio Copy\FLAC\FLAC.EXEAdditional command line options : -8 -V -T "ARTIST=%a" -T "TITLE=%t" -T "ALBUM=%g" -T "DATE=%y" -T "TRACKNUMBER=%n" -T "GENRE=%m" -T "COMMENT=%e" %s -o %d

TOC of the extracted CD

Track | Start | Length | Start sector | End sector --------------------------------------------------------- 1 | 0:00.01 | 6:38.36 | 1 | 29886 2 | 6:38.37 | 4:38.49 | 29887 | 50785 3 | 11:17.11 | 5:41.08 | 50786 | 76368 4 | 16:58.19 | 4:59.34 | 76369 | 98827 5 | 21:57.53 | 7:37.57 | 98828 | 133159 6 | 29:35.35 | 3:27.00 | 133160 | 148684 7 | 33:02.35 | 5:59.62 | 148685 | 175671

Track 1

Filename M:\New Torrentz\Bob Dylan - 1984-07-07 - London, England - What's Real (TNT)\Disc 2\Track01.wav

Peak level 99.9 % Track quality 99.9 % Copy CRC 6860A3E1 Copy OK

Track 2

Filename M:\New Torrentz\Bob Dylan - 1984-07-07 - London, England - What's Real (TNT)\Disc 2\Track02.wav

Peak level 81.6 % Track quality 100.0 % Copy CRC 1132C6FF Copy OK

Track 3

Filename M:\New Torrentz\Bob Dylan - 1984-07-07 - London, England - What's Real (TNT)\Disc 2\Track03.wav

Peak level 80.9 % Track quality 100.0 % Copy CRC 66B96CF9 Copy OK

Track 4

Filename M:\New Torrentz\Bob Dylan - 1984-07-07 - London, England - What's Real (TNT)\Disc 2\Track04.wav

Peak level 76.9 % Track quality 100.0 % Copy CRC 87631CDD Copy OK

Track 5

Filename M:\New Torrentz\Bob Dylan - 1984-07-07 - London, England - What's Real (TNT)\Disc 2\Track05.wav

Peak level 75.2 % Track quality 100.0 % Copy CRC 4E48318D Copy OK

Track 6

Filename M:\New Torrentz\Bob Dylan - 1984-07-07 - London, England - What's Real (TNT)\Disc 2\Track06.wav

Peak level 77.3 % Track quality 100.0 % Copy CRC 19A4151F Copy OK

Track 7

Filename M:\New Torrentz\Bob Dylan - 1984-07-07 - London, England - What's Real (TNT)\Disc 2\Track07.wav

Peak level 78.1 % Track quality 100.0 % Copy CRC C6228E7F Copy OK

No errors occurred

End of status report
AUDIOCHECKER v1.2 - by Dester - <a href="mailto:opdester@freemail.hu" class="postLink">opdester@freemail.hu</a>~~~~~~~~~~~~~~~~~

1 -===- G:\Torrents\Download files\Bob Dylan 1984-07-07 What's Real (London, England)\Disc 3\01 - Leopard Skin Pillbox Hat.flac Extracted successfully Conclusion: This track looks like CDDA with probability 100%

2 -===- G:\Torrents\Download files\Bob Dylan 1984-07-07 What's Real (London, England)\Disc 3\02 - It's All Over Now, Baby Blue.flac Extracted successfully Conclusion: This track looks like CDDA with probability 100%

3 -===- G:\Torrents\Download files\Bob Dylan 1984-07-07 What's Real (London, England)\Disc 3\03 - Tombstone Blues.flac Extracted successfully Conclusion: This track looks like CDDA with probability 99%

4 -===- G:\Torrents\Download files\Bob Dylan 1984-07-07 What's Real (London, England)\Disc 3\04 - Senor.flac Extracted successfully Conclusion: This track looks like CDDA with probability 99%

5 -===- G:\Torrents\Download files\Bob Dylan 1984-07-07 What's Real (London, England)\Disc 3\05 - The Times They Are a Changin'.flac Extracted successfully Conclusion: This track looks like CDDA with probability 100%

6 -===- G:\Torrents\Download files\Bob Dylan 1984-07-07 What's Real (London, England)\Disc 3\06 - Blowin' in the Wind.flac Extracted successfully Conclusion: This track looks like CDDA with probability 100%

7 -===- G:\Torrents\Download files\Bob Dylan 1984-07-07 What's Real (London, England)\Disc 3\07 - Knockin' On Heaven's Door.flac Extracted successfully Conclusion: This track looks like CDDA with probability 100%
Концерт №26 Европейского тура 1984 года с Миком Тейлором ( Mick Taylor), гитаристом The Rolling Stones, состоялся 7 июля 1984 г. на старом стадионе "Wembley" в Лондоне. С этого концерта несколько песен (cursive) вошли в официальный альбом "Real Live",выпущенный студией CBS в 1985 г. На CD3 песни с участием приглашенных гостей: Эрика Клэптона (Eric Clapton)-гитара, Карлоса Сантаны (Carlos Santana)-гитара, Крисси Хайнд (Chrissie Hynde)-вокал (кроме Tombstone) и Ван Моррисона (Van Morrison)-вокал и гитара (толко в песне It's All Over Now Baby Blue).

Трекер:  [ 12-Янв-2013 17:10 ]

  

Скачать .torrent

Размер .torrent файла 13 KB


Размер: 1.05 GB
Хэш (hash) релиза: 4fc9a9287ac6b450001f00869f9b2b1a50c38327

Еще никто не оставлял запись к записи скачать торрент Bob Dylan - Whats Real? . Будь первым!

!Обратная связь