Скачать через торрент музыку Gene Summers - School Of Rock And Roll бесплатно без регистрации torrent

Если у вас наблюдаются проблемы со скриншотами, переходом по ссылками, скачиванием торрентов - проблемы в блокировщике рекламы AdBlock. #хорошегоДня!


Статистика раздачи
Размер:  380 MB   |    Зарегистрирован:  4 года 7 месяцев   |    .torrent скачан:  23 раза   |   
Раздают:  1  
   
Загрузка...
 
Автор Сообщение

Galfimbul

avatar Galfimbul


Gene Summers / School Of Rock And Roll

Жанр: Rockabilly
Страна-производитель диска: Holland
Год издания: 2004
Издатель (лейбл): Collector
Номер по каталогу: 4420
Страна: USA
Аудиокодек: FLAC (*.flac)
Тип рипа: image+.cue
Битрейт аудио: lossless
Продолжительность: 66:09
Источник (релизер): AUDELAS KINGDOM
Наличие сканов в содержимом раздачи: да

01. School Of Rock And Roll
02. Straight Skirt
03. Nervous
04. Gotta Lotta That
05. Twixteen
06. Ill Never Be Loneley
07. Dance, Dance, Dance
08. Almost 12 o`Clock
09. Alabama Shake
10. Wine, Wine, Wine
11. I`Ve Had It
12. Leroy
13. Lover Please
14. Mad Mad World
15. Loco Cat ( instr.)
16. Mister Rock And Roll
17. Floppin (instr.)
18. Turnip Greens
19. He, My Baby
20. Baby Are You Kiddin`
21. You`re Gonna Be Sorry
22. Honey Hush
23. Rockaboogie Shake
24. Big Blue Diamand
25. I Got A Baby
26. Rockin`Daddy
27. Who Stole The Marker
28. Blue Monday
29. Big River
30. The Rebel -Johnny Yuma
Exact Audio Copy V1.0 beta 2 from 29. April 2011

Отчёт EAC об извлечении, выполненном 12. января 2013, 5:43

Gene Summers / School Of Rock And Roll

Дисковод: ATAPI iHAS124 B Adapter: 1 ID: 1

Режим чтения : ДостоверностьИспользование точного потока : ДаОтключение кэша аудио : ДаИспользование указателей C2 : Нет

Коррекция смещения при чтении : 6Способность читать области Lead-in и Lead-out : НетЗаполнение пропущенных сэмплов тишиной : ДаУдаление блоков с тишиной в начале и конце : НетПри вычислениях CRC использовались нулевые сэмплы : ДаИнтерфейс : Встроенный Win32-интерфейс для Win NT/2000

Выходной формат : Пользовательский кодировщикВыбранный битрейт : 1024 kBit/sКачество : ВысокийДобавление ID3-тега : НетУтилита сжатия : C:\Program Files\Exact Audio Copy\FLAC\FLAC.EXEДополнительные параметры : -6 -V -T "ARTIST=%artist%" -T "TITLE=%title%" -T "ALBUM=%albumtitle%" -T "DATE=%year%" -T "TRACKNUMBER=%tracknr%" -T "GENRE=%genre%" -T "COMMENT=%comment%" -T "BAND=%albuminterpret%" -T "COMPOSER=%composer%" %haslyrics%--tag-from-

TOC извлечённого CD

Трек | Старт | Длительность | Начальный сектор | Конечный сектор --------------------------------------------------------------------- 1 | 0:00.25 | 2:09.32 | 25 | 9731 2 | 2:09.57 | 1:59.53 | 9732 | 18709 3 | 4:09.35 | 2:35.00 | 18710 | 30334 4 | 6:44.35 | 2:10.37 | 30335 | 40121 5 | 8:54.72 | 1:57.58 | 40122 | 48954 6 | 10:52.55 | 2:19.05 | 48955 | 59384 7 | 13:11.60 | 1:57.60 | 59385 | 68219 8 | 15:09.45 | 1:49.42 | 68220 | 76436 9 | 16:59.12 | 1:46.68 | 76437 | 84454 10 | 18:46.05 | 2:09.40 | 84455 | 94169 11 | 20:55.45 | 2:17.45 | 94170 | 104489 12 | 23:13.15 | 2:14.02 | 104490 | 114541 13 | 25:27.17 | 2:11.28 | 114542 | 124394 14 | 27:38.45 | 2:29.22 | 124395 | 135591 15 | 30:07.67 | 2:40.55 | 135592 | 147646 16 | 32:48.47 | 2:11.33 | 147647 | 157504 17 | 35:00.05 | 2:06.60 | 157505 | 167014 18 | 37:06.65 | 2:04.57 | 167015 | 176371 19 | 39:11.47 | 1:53.70 | 176372 | 184916 20 | 41:05.42 | 1:39.55 | 184917 | 192396 21 | 42:45.22 | 2:05.73 | 192397 | 201844 22 | 44:51.20 | 3:35.27 | 201845 | 217996 23 | 48:26.47 | 1:38.48 | 217997 | 225394 24 | 50:05.20 | 2:27.60 | 225395 | 236479 25 | 52:33.05 | 2:03.67 | 236480 | 245771 26 | 54:36.72 | 1:57.73 | 245772 | 254619 27 | 56:34.70 | 2:41.55 | 254620 | 266749 28 | 59:16.50 | 2:38.52 | 266750 | 278651 29 | 61:55.27 | 2:46.15 | 278652 | 291116 30 | 64:41.42 | 2:04.73 | 291117 | 300489

Характеристики диапазона извлечения и сообщения об ошибках

Выбранный диапазон

Имя файла D:\Muzika\Gene Summers - School of Rock and Roll (2004)\Gene Summers - School Of Rock And Roll.wav

Пиковый уровень 86.9 % Скорость извлечения 9.1 X Качество диапазона 100.0 % CRC теста B1A9DBA1 CRC копии B1A9DBA1 Копирование... OK

Ошибок не произошло

AccurateRip: сводка

Трек 1 : извлечено точно (доверие 1) [E6FFC6EC] (AR v1)Трек 2 : извлечено точно (доверие 1) [0468C87E] (AR v1)Трек 3 : извлечено точно (доверие 1) [9F33B688] (AR v1)Трек 4 : извлечено точно (доверие 1) [95A6415B] (AR v1)Трек 5 : извлечено точно (доверие 1) [F8E52741] (AR v1)Трек 6 : извлечено точно (доверие 1) [DAF162D2] (AR v1)Трек 7 : извлечено точно (доверие 1) [7FA9D8E1] (AR v1)Трек 8 : извлечено точно (доверие 1) [4508C1DB] (AR v1)Трек 9 : извлечено точно (доверие 1) [EDB361B2] (AR v1)Трек 10 : извлечено точно (доверие 1) [7B0AF438] (AR v1)Трек 11 : извлечено точно (доверие 1) [4EC18693] (AR v1)Трек 12 : извлечено точно (доверие 1) [E1492F03] (AR v1)Трек 13 : извлечено точно (доверие 1) [D55FF1A1] (AR v1)Трек 14 : извлечено точно (доверие 1) [58D132CC] (AR v1)Трек 15 : извлечено точно (доверие 1) [DAB061E4] (AR v1)Трек 16 : извлечено точно (доверие 1) [7D18D3AB] (AR v1)Трек 17 : извлечено точно (доверие 1) [1C2FED10] (AR v1)Трек 18 : извлечено точно (доверие 1) [36306F66] (AR v1)Трек 19 : извлечено точно (доверие 1) [190435D7] (AR v1)Трек 20 : извлечено точно (доверие 1) [10974AA5] (AR v1)Трек 21 : извлечено точно (доверие 1) [601DFC39] (AR v1)Трек 22 : извлечено точно (доверие 1) [336C9176] (AR v1)Трек 23 : извлечено точно (доверие 1) [E2BE7F31] (AR v1)Трек 24 : извлечено точно (доверие 1) [BF7788CD] (AR v1)Трек 25 : извлечено точно (доверие 1) [92BD90C8] (AR v1)Трек 26 : извлечено точно (доверие 1) [2F9CC4E8] (AR v1)Трек 27 : извлечено точно (доверие 1) [FBF8DF69] (AR v1)Трек 28 : извлечено точно (доверие 1) [E70B98DA] (AR v1)Трек 29 : извлечено точно (доверие 1) [58C6F8A2] (AR v1)Трек 30 : извлечено точно (доверие 1) [6E6A46B2] (AR v1)

Все треки извлечены точно

Конец отчёта

==== Контрольная сумма отчёта 292D21137B3D78A93C3662457DEAFA1F7C5A5D468C28A71505373CF19E5B4AC1 ====


Трекер:  [ 12-Янв-2013 17:04 ]

  

Скачать .torrent

Размер .torrent файла 15 KB


Размер: 380 MB
Хэш (hash) релиза: dedbe2ff872b1a94b6f9928e1559629fcd60dbf5

Еще никто не оставлял запись к записи скачать торрент Gene Summers - School Of Rock And Roll . Будь первым!

!Обратная связь