Скачать через торрент музыку Dave Taylor - Boogie In The City - 1993, FLAC бесплатно без регистрации torrent

Если у вас наблюдаются проблемы со скриншотами, переходом по ссылками, скачиванием торрентов - проблемы в блокировщике рекламы AdBlock. #хорошегоДня!


Статистика раздачи
Размер:  318 MB   |    Зарегистрирован:  4 года 10 месяцев   |    .torrent скачан:  33 раза   |   
Раздают:  1  
   
Загрузка...
 
Автор Сообщение

Galfimbul

avatar Galfimbul


Dave Taylor / Boogie In The City

Жанр: Boogie Woogie
Страна-производитель диска: EEC
Год издания: 1993
Издатель (лейбл): DT Enterprises
Номер по каталогу: 1114
Страна: UK
Аудиокодек: FLAC (*.flac)
Тип рипа: image+.cue
Битрейт аудио: lossless
Продолжительность: 41:22
Источник (релизер): AUDELAS KINGDOM
Наличие сканов в содержимом раздачи: да
01. Minor Details
02. Scrapin' The Barrel
03. Boogie F'release
04. Shufflin'
05. Driving Home
06. Sky Jive
07. Big Beam Boogie
08. Dave's Boogie
09. Chattanooga Choo Choo
10. Honky Tonk Express
11. Boogie In The City
12. Cadillac Boogie
13. Grizzly Bear Boogie
14. Nola Boogie
15. Swanee River Boogie
16. Boogie Woogie
Доп. информация: http://www.youtube.com/watch?v=K7pgMZ84EjM
Exact Audio Copy V1.0 beta 2 from 29. April 2011

Отчёт EAC об извлечении, выполненном 12. января 2013, 16:04

Dave Taylor / Boogie In The City

Дисковод: ATAPI iHAS124 B Adapter: 1 ID: 1

Режим чтения : ДостоверностьИспользование точного потока : ДаОтключение кэша аудио : ДаИспользование указателей C2 : Нет

Коррекция смещения при чтении : 6Способность читать области Lead-in и Lead-out : НетЗаполнение пропущенных сэмплов тишиной : ДаУдаление блоков с тишиной в начале и конце : НетПри вычислениях CRC использовались нулевые сэмплы : ДаИнтерфейс : Встроенный Win32-интерфейс для Win NT/2000

Выходной формат : Пользовательский кодировщикВыбранный битрейт : 1024 kBit/sКачество : ВысокийДобавление ID3-тега : НетУтилита сжатия : C:\Program Files\Exact Audio Copy\FLAC\FLAC.EXEДополнительные параметры : -6 -V -T "ARTIST=%artist%" -T "TITLE=%title%" -T "ALBUM=%albumtitle%" -T "DATE=%year%" -T "TRACKNUMBER=%tracknr%" -T "GENRE=%genre%" -T "COMMENT=%comment%" -T "BAND=%albuminterpret%" -T "COMPOSER=%composer%" %haslyrics%--tag-from-

TOC извлечённого CD

Трек | Старт | Длительность | Начальный сектор | Конечный сектор --------------------------------------------------------------------- 1 | 0:00.00 | 2:57.70 | 0 | 13344 2 | 2:57.70 | 3:41.00 | 13345 | 29919 3 | 6:38.70 | 2:59.25 | 29920 | 43369 4 | 9:38.20 | 4:24.03 | 43370 | 63172 5 | 14:02.23 | 2:54.70 | 63173 | 76292 6 | 16:57.18 | 3:02.65 | 76293 | 90007 7 | 20:00.08 | 3:33.47 | 90008 | 106029 8 | 23:33.55 | 3:34.48 | 106030 | 122127 9 | 27:08.28 | 3:42.15 | 122128 | 138792 10 | 30:50.43 | 3:09.52 | 138793 | 153019 11 | 34:00.20 | 2:33.60 | 153020 | 164554 12 | 36:34.05 | 3:38.33 | 164555 | 180937 13 | 40:12.38 | 2:06.45 | 180938 | 190432 14 | 42:19.08 | 4:10.65 | 190433 | 209247 15 | 46:29.73 | 3:18.62 | 209248 | 224159 16 | 49:48.60 | 3:21.08 | 224160 | 239242

Характеристики диапазона извлечения и сообщения об ошибках

Выбранный диапазон

Имя файла D:\Muzika\Dave Taylor - Boogie In The City (1993)\Dave Taylor - Boogie In The City.wav

Пиковый уровень 100.0 % Скорость извлечения 9.0 X Качество диапазона 100.0 % CRC теста 66C67123 CRC копии 66C67123 Копирование... OK

Ошибок не произошло

AccurateRip: сводка

Трек 1 отсутствует в базе данныхТрек 2 отсутствует в базе данныхТрек 3 отсутствует в базе данныхТрек 4 отсутствует в базе данныхТрек 5 отсутствует в базе данныхТрек 6 отсутствует в базе данныхТрек 7 отсутствует в базе данныхТрек 8 отсутствует в базе данныхТрек 9 отсутствует в базе данныхТрек 10 отсутствует в базе данныхТрек 11 отсутствует в базе данныхТрек 12 отсутствует в базе данныхТрек 13 отсутствует в базе данныхТрек 14 отсутствует в базе данныхТрек 15 отсутствует в базе данныхТрек 16 отсутствует в базе данных

Ни одного трека нет в базе AccurateRip

Конец отчёта

==== Контрольная сумма отчёта C3750405869D3239771E713A21F7781AD4453547D336D74FBDE356B2682630C3 ====


Трекер:  [ 12-Янв-2013 17:04 ]

  

Скачать .torrent

Размер .torrent файла 13 KB


Размер: 318 MB
Хэш (hash) релиза: 748584403ce1c4892f0c6358f735b16889e4e76a

Еще никто не оставлял запись к записи скачать торрент Dave Taylor - Boogie In The City - 1993, FLAC . Будь первым!

!Обратная связь