Скачать через торрент музыку Crossroad Jam - From Within - 1994, FLAC бесплатно без регистрации torrent

Если у вас наблюдаются проблемы со скриншотами, переходом по ссылками, скачиванием торрентов - проблемы в блокировщике рекламы AdBlock. #хорошегоДня!


Статистика раздачи
Размер:  308 MB   |    Зарегистрирован:  4 года 10 месяцев   |    .torrent скачан:  29 раз   |   
Раздают:  1  
   
Загрузка...
 
Автор Сообщение

Galfimbul

avatar Galfimbul


Crossroad Jam / From Within

Жанр: Hard Rock
Страна-производитель диска: Россия
Год издания: 1994
Аудиокодек: FLAC (*.flac)
Тип рипа: image+.cue
Битрейт аудио: lossless
Продолжительность: 43:35
Источник (релизер): my disc
Наличие сканов в содержимом раздачи: да
Треклист:
01. Let It Rain [0:04:04.47]
02. Going To Babylon [0:03:51.30]
03. Times Like These [0:05:33.00]
04. Mercedes Benz [0:04:16.10]
05. Let's Get Together [0:03:59.18]
06. Heart Of Darkness [0:03:24.30]
07. Sword Of Damocles [0:05:10.52]
08. Move Your Feet [0:04:35.48]
09. Shame [0:04:42.32]
10. Bittle Drive Me Wild [0:03:57.22]
Exact Audio Copy V0.99 prebeta 4 from 23. January 2008

Отчёт EAC об извлечении, выполненном 12. января 2013, 1:44

Crossroad Jam / From Within

Дисковод: ASUS DRW-1814BL Adapter: 1 ID: 0

Режим чтения : ДостоверностьИспользование точного потока : ДаОтключение кэша аудио : ДаИспользование указателей C2 : Нет

Коррекция смещения при чтении : 6Способность читать области Lead-in и Lead-out : НетЗаполнение пропущенных сэмплов тишиной : ДаУдаление блоков с тишиной в начале и конце : НетПри вычислениях CRC использовались нулевые сэмплы : ДаИнтерфейс : Установленный внешний ASPI-интерфейс

Выходной формат : Пользовательский кодировщикВыбранный битрейт : 1024 kBit/sКачество : ВысокийДобавление ID3-тэга : НетУтилита сжатия : C:\Program Files\Exact Audio Copy\FLAC\FLAC.EXEДополнительные параметры : -6 -V -T "ARTIST=%a" -T "TITLE=%t" -T "ALBUM=%g" -T "DATE=%y" -T "TRACKNUMBER=%n" -T "GENRE=%m" -T "COMMENT=%e" %s -o %d

TOC извлечённого CD

Трек | Старт | Длительность | Начальный сектор | Конечный сектор --------------------------------------------------------------------- 1 | 0:00.00 | 4:04.47 | 0 | 18346 2 | 4:04.47 | 3:51.30 | 18347 | 35701 3 | 7:56.02 | 5:33.00 | 35702 | 60676 4 | 13:29.02 | 4:16.10 | 60677 | 79886 5 | 17:45.12 | 3:59.18 | 79887 | 97829 6 | 21:44.30 | 3:24.30 | 97830 | 113159 7 | 25:08.60 | 5:10.52 | 113160 | 136461 8 | 30:19.37 | 4:35.48 | 136462 | 157134 9 | 34:55.10 | 4:42.32 | 157135 | 178316 10 | 39:37.42 | 3:57.22 | 178317 | 196113

Характеристики диапазона извлечения и сообщения об ошибках

Выбранный диапазон

Имя файла D:\loSSleSS\crossroad jam'94\Crossroad Jam - From Within.wav

Пиковый уровень 100.0 % Качество диапазона 100.0 % CRC теста 189EAC3E CRC копии 189EAC3E Копирование... OK

Ошибок не произошло

AccurateRip: сводка

Трек 1 нет в базе данныхТрек 2 нет в базе данныхТрек 3 нет в базе данныхТрек 4 нет в базе данныхТрек 5 нет в базе данныхТрек 6 нет в базе данныхТрек 7 нет в базе данныхТрек 8 нет в базе данныхТрек 9 нет в базе данныхТрек 10 нет в базе данных

Ни одного трека нет в базе AccurateRip

Конец отчёта
Доп. информация: Если слукавить и сказать,что данный материал записан малоизвестной групой из Щвеции,ещё в середине 70-х,то кто не слышал и не имел диск данного коллектива,примут это за чистую монету,так как слушая композиции, действительно думаешь,что зто происходит во времена,когда зажигали по полной и Джим Моррисон и Дженис Джоплин,а группа выступает на разогреве перед Назаретом или Слейдом,когда ещё не было ни металла ни рэпа,а на мировых сценах,залах,стадионах господствовал старый добрый рок.
Roland Chantrel - vocals
Fredric Norburg - guitar
Matt Vereez - bass
Peter Emilsson - keyboards
Joje Lindskloog - drums


Трекер:  [ 12-Янв-2013 08:32 ]

  

Скачать .torrent

Размер .torrent файла 13 KB


Размер: 308 MB
Хэш (hash) релиза: 28cc348661fc3acc1d6f9dd5e43ad798fc21f099

Еще никто не оставлял запись к записи скачать торрент Crossroad Jam - From Within - 1994, FLAC . Будь первым!

!Обратная связь