Скачать через торрент музыку Theodore Ziras - Territory 4 - 2009, FLAC бесплатно без регистрации torrent

Если у вас наблюдаются проблемы со скриншотами, переходом по ссылками, скачиванием торрентов - проблемы в блокировщике рекламы AdBlock. #хорошегоДня!


Статистика раздачи
Размер:  365 MB   |    Зарегистрирован:  4 года 7 месяцев   |    .torrent скачан:  27 раз   |   
Раздают:  1  
   
Загрузка...
 
Автор Сообщение

Galfimbul

avatar Galfimbul


Theodore Ziras - Territory 4 - 2009
Жанр: Neoclassical/instrumental/Progressive Metal
Год издания: 2009
Издатель (лейбл): Sleaszy Rider
Номер по каталогу: SR-0084
Страна: Greece
Аудиокодек: FLAC (*.flac)
Тип рипа: image+.cue
Битрейт аудио: lossless
Продолжительность: 00:44:10
Источник (релизер): [MMT] shen
Наличие сканов в содержимом раздачи: да
Треклист:
01. Loud and Proud 04:49
02. Jordan's Trap 04:18
03. Blasphemy 05:02
04. O.K 04:10
05. The Sheen 04:59
06. Strong Desire 04:06
07. Irredenta 04:36
08. Over the Sky 03:11
09. A New Sunrise 05:28
10. Wolfgang's March 03:26
Exact Audio Copy V1.0 beta 1 from 15. November 2010

EAC extraction logfile from 23. December 2012, 18:19

Theodore Ziras / Territory 4

Used drive : Optiarc DVD RW AD-7261S Adapter: 1 ID: 0

Read mode : SecureUtilize accurate stream : YesDefeat audio cache : YesMake use of C2 pointers : No

Read offset correction : 48Overread into Lead-In and Lead-Out : NoFill up missing offset samples with silence : YesDelete leading and trailing silent blocks : NoNull samples used in CRC calculations : YesUsed interface : Native Win32 interface for Win NT & 2000

Used output format : Internal WAV RoutinesSample format : 44.100 Hz; 16 Bit; Stereo

TOC of the extracted CD

Track | Start | Length | Start sector | End sector --------------------------------------------------------- 1 | 0:00.00 | 4:49.27 | 0 | 21701 2 | 4:49.27 | 4:18.23 | 21702 | 41074 3 | 9:07.50 | 5:02.41 | 41075 | 63765 4 | 14:10.16 | 4:10.63 | 63766 | 82578 5 | 18:21.04 | 4:59.26 | 82579 | 105029 6 | 23:20.30 | 4:06.26 | 105030 | 123505 7 | 27:26.56 | 4:36.12 | 123506 | 144217 8 | 32:02.68 | 3:11.43 | 144218 | 158585 9 | 35:14.36 | 5:28.68 | 158586 | 183253 10 | 40:43.29 | 3:26.46 | 183254 | 198749

Range status and errors

Selected range

Filename C:\Theodore Ziras - Territory 4.wav

Peak level 97.4 % Extraction speed 0.2 X Range quality 100.0 % Test CRC AD7A5B22 Copy CRC AD7A5B22 Copy OK

No errors occurred

AccurateRip summary

Track 1 not present in databaseTrack 2 not present in databaseTrack 3 not present in databaseTrack 4 not present in databaseTrack 5 not present in databaseTrack 6 not present in databaseTrack 7 not present in databaseTrack 8 not present in databaseTrack 9 not present in databaseTrack 10 not present in database

None of the tracks are present in the AccurateRip database

End of status report



Трекер:  [ 11-Янв-2013 23:49 ]

  

Скачать .torrent

Размер .torrent файла 15 KB


Размер: 365 MB
Хэш (hash) релиза: 996b021e51ec9e95faecd06b95d4e350493924ef

Торренты, похожие на Theodore Ziras - Territory 4 - 2009, FLAC скачать торрент

Форум Название Автор Размер S L Добавлен
Зарубежный Rock ·· (Neoclassical/Progressive Metal) Theodore Ziras - Territory 4 - 2009, FLAC (image+.cue), lossless Galfimbul 382347443365 MB 0 0 1357937340

23:49

11-Янв-13

Еще никто не оставлял запись к записи скачать торрент Theodore Ziras - Territory 4 - 2009, FLAC . Будь первым!

!Обратная связь