Скачать через торрент музыку Brave New World - Monsters - 2001, FLAC бесплатно без регистрации torrent

Если у вас наблюдаются проблемы со скриншотами, переходом по ссылками, скачиванием торрентов - проблемы в блокировщике рекламы AdBlock. #хорошегоДня!


Статистика раздачи
Размер:  421 MB   |    Зарегистрирован:  4 года 7 месяцев   |    .torrent скачан:  24 раза   |   
Раздают:  1  
   
Загрузка...
 
Автор Сообщение

Galfimbul

avatar Galfimbul


Brave New World - Monsters - 2001
Жанр: Melodic Hard Rock / Prog. Rock
Год издания: 2001
Издатель (лейбл): Lion Music
Номер по каталогу: LMC 158
Страна: UK
Аудиокодек: FLAC (*.flac)
Тип рипа: image+.cue
Битрейт аудио: lossless
Продолжительность: 00:54:20
Источник (релизер): swint68
Наличие сканов в содержимом раздачи: да
Треклист:
01. Knife In My Back
02. Arabia
03. Strange Days
04. I Want You
05. Dreams Never Die
06. Walls Come Down
07. All The Heroes
08. The Other Side
09. (Into The) Age Of Chaos
Exact Audio Copy V0.99 prebeta 5 from 4. May 2009

Отчёт EAC об извлечении, выполненном 18. июля 2012, 14:11

Brave New World / Monsters

Дисковод: SONY DVD RW AW-G170A Adapter: 1 ID: 0

Режим чтения : ДостоверностьИспользование точного потока : ДаОтключение кэша аудио : ДаИспользование указателей C2 : Нет

Коррекция смещения при чтении : 48Способность читать области Lead-in и Lead-out : НетЗаполнение пропущенных сэмплов тишиной : ДаУдаление блоков с тишиной в начале и конце : НетПри вычислениях CRC использовались нулевые сэмплы : ДаИнтерфейс : Встроенный Win32-интерфейс для Win NT/2000

Выходной формат : Внутренние WAV-операцииФормат сэмплов : 44.100 Гц; 16 бит; стерео

TOC извлечённого CD

Трек | Старт | Длительность | Начальный сектор | Конечный сектор --------------------------------------------------------------------- 1 | 0:00.00 | 5:15.40 | 0 | 23664 2 | 5:15.40 | 6:37.09 | 23665 | 53448 3 | 11:52.49 | 5:07.50 | 53449 | 76523 4 | 17:00.24 | 6:44.00 | 76524 | 106823 5 | 23:44.24 | 6:25.48 | 106824 | 135746 6 | 30:09.72 | 6:47.54 | 135747 | 166325 7 | 36:57.51 | 4:27.72 | 166326 | 186422 8 | 41:25.48 | 6:19.28 | 186423 | 214875 9 | 47:45.01 | 6:34.49 | 214876 | 244474

Характеристики диапазона извлечения и сообщения об ошибках

Выбранный диапазон

Имя файла E:\Brave New World\Brave New World - Monsters.wav

Пиковый уровень 100.0 % Качество диапазона 100.0 % CRC копии 4475DD79 Копирование... OK

Ошибок не произошло

Конец отчёта



Трекер:  [ 11-Янв-2013 23:48 ]

  

Скачать .torrent

Размер .torrent файла 17 KB


Размер: 421 MB
Хэш (hash) релиза: 16cb8d642c0021c6a8d444fb6d54ee794ee90538

Еще никто не оставлял запись к записи скачать торрент Brave New World - Monsters - 2001, FLAC . Будь первым!

!Обратная связь