Скачать через торрент музыку Black Sabbath - Greatest Hits - 2009 бесплатно без регистрации torrent

Если у вас наблюдаются проблемы со скриншотами, переходом по ссылками, скачиванием торрентов - проблемы в блокировщике рекламы AdBlock. #хорошегоДня!


Статистика раздачи
Размер:  547 MB   |    Зарегистрирован:  4 года 10 месяцев   |    .torrent скачан:  53 раза   |   
Раздают:  1  
   
Загрузка...
 
Автор Сообщение

Galfimbul

avatar Galfimbul


2009-Greatest Hits
[EU, Universal 2705880]

Жанр: Hard Rock / Heavy Metal
Страна исполнителя: United Kingdom
Страна-производитель диска: EU (Germany)
Год издания диска: 2009
Издатель (лейбл): Universal Music TV
Номер по каталогу: 2705880
Аудио кодек: FLAC (*.flac)
Тип рипа: image+.cue
Битрейт аудио: lossless
Продолжительность: 1:13:21
Источник (релизер): Аннушка (NetLab)
Наличие сканов в содержимом раздачи:
01. Paranoid (2:50)
02. Iron Man (5:55)
03. Changes (4:43)
04. Fairies Wear Boots (6:16)
05. War Pigs (7:57)
06. Never Say Die (3:50)
07. Children Of The Grave (5:17)
08. The Wizard (4:25)
09. Snowblind (5:30)
10. Sweet Leaf (5:05)
11. Evil Woman (Don't Play Your Games With Me) (3:23)
12. Sabbath Bloody Sabbath (5:46)
13. Black Sabbath (6:18)
14. N.I.B (6:06)
Exact Audio Copy V1.0 beta 3 from 29. August 2011

EAC extraction logfile from 27. December 2012, 20:02

Black Sabbath / Greatest Hits

Used drive : ASUS SDRW-08D2S-U Adapter: 4 ID: 1

Read mode : SecureUtilize accurate stream : YesDefeat audio cache : YesMake use of C2 pointers : No

Read offset correction : 6Overread into Lead-In and Lead-Out : NoFill up missing offset samples with silence : YesDelete leading and trailing silent blocks : NoNull samples used in CRC calculations : YesUsed interface : Native Win32 interface for Win NT & 2000

Used output format : Internal WAV RoutinesSample format : 44.100 Hz; 16 Bit; Stereo

TOC of the extracted CD

Track | Start | Length | Start sector | End sector --------------------------------------------------------- 1 | 0:00.00 | 2:50.18 | 0 | 12767 2 | 2:50.18 | 5:55.33 | 12768 | 39425 3 | 8:45.51 | 4:43.16 | 39426 | 60666 4 | 13:28.67 | 6:15.39 | 60667 | 88830 5 | 19:44.31 | 7:56.41 | 88831 | 124571 6 | 27:40.72 | 3:50.30 | 124572 | 141851 7 | 31:31.27 | 5:17.37 | 141852 | 165663 8 | 36:48.64 | 4:25.02 | 165664 | 185540 9 | 41:13.66 | 5:29.51 | 185541 | 210266 10 | 46:43.42 | 5:04.67 | 210267 | 233133 11 | 51:48.34 | 3:22.72 | 233134 | 248355 12 | 55:11.31 | 5:45.55 | 248356 | 274285 13 | 60:57.11 | 6:18.23 | 274286 | 302658 14 | 67:15.34 | 6:06.21 | 302659 | 330129

Range status and errors

Selected range

Filename C:\Music CD\Black Sabbath - Greatest Hits.wav

Peak level 98.8 % Extraction speed 5.2 X Range quality 100.0 % Test CRC B84E38C9 Copy CRC B84E38C9 Copy OK

No errors occurred

AccurateRip summary

Track 1 accurately ripped (confidence 11) [E61300E0] (AR v2)Track 2 accurately ripped (confidence 11) [5583D245] (AR v2)Track 3 accurately ripped (confidence 11) [AC0057F4] (AR v2)Track 4 accurately ripped (confidence 11) [03D5CD40] (AR v2)Track 5 accurately ripped (confidence 11) [A72E027E] (AR v2)Track 6 accurately ripped (confidence 11) [7CE124D2] (AR v2)Track 7 accurately ripped (confidence 10) [033AA833] (AR v2)Track 8 accurately ripped (confidence 11) [F24A9AE1] (AR v2)Track 9 accurately ripped (confidence 11) [5865B82E] (AR v2)Track 10 accurately ripped (confidence 11) [146A50DA] (AR v2)Track 11 accurately ripped (confidence 11) [4B72D3D3] (AR v2)Track 12 accurately ripped (confidence 11) [1F32C5D5] (AR v2)Track 13 accurately ripped (confidence 11) [FE5CBBDD] (AR v2)Track 14 accurately ripped (confidence 10) [59C40FA9] (AR v2)

All tracks accurately ripped

End of status report

==== Log checksum 079A13FB4570D73364A95C72582AC121B9118C6E5DBFBD59E6D89B95D51093D5 ====
REM GENRE "Heavy Metal"REM DATE 2009REM DISCID B111310EREM COMMENT "ExactAudioCopy v1.0b3"REM ACCURATERIPID 0024e5e9-018c3f8d-b111310eCATALOG 602527058801REM DISCNUMBER 1REM TOTALDISCS 1PERFORMER "Black Sabbath"TITLE "Greatest Hits"FILE "Black Sabbath - Greatest Hits.flac" WAVE TRACK 01 AUDIO TITLE "Paranoid" PERFORMER "Black Sabbath" INDEX 01 00:00:00 TRACK 02 AUDIO TITLE "Iron Man" PERFORMER "Black Sabbath" INDEX 00 02:48:26 INDEX 01 02:50:18 TRACK 03 AUDIO TITLE "Changes" PERFORMER "Black Sabbath" INDEX 00 08:43:68 INDEX 01 08:45:51 TRACK 04 AUDIO TITLE "Fairies Wear Boots" PERFORMER "Black Sabbath" INDEX 00 13:27:01 INDEX 01 13:28:67 TRACK 05 AUDIO TITLE "War Pigs" PERFORMER "Black Sabbath" INDEX 00 19:42:07 INDEX 01 19:44:31 TRACK 06 AUDIO TITLE "Never Say Die" PERFORMER "Black Sabbath" INDEX 00 27:38:25 INDEX 01 27:40:72 TRACK 07 AUDIO TITLE "Children Of The Grave" PERFORMER "Black Sabbath" INDEX 00 31:28:43 INDEX 01 31:31:27 TRACK 08 AUDIO TITLE "The Wizard" PERFORMER "Black Sabbath" INDEX 00 36:47:12 INDEX 01 36:48:64 TRACK 09 AUDIO TITLE "Snowblind" PERFORMER "Black Sabbath" INDEX 00 41:09:70 INDEX 01 41:13:66 TRACK 10 AUDIO TITLE "Sweet Leaf" PERFORMER "Black Sabbath" INDEX 00 46:41:21 INDEX 01 46:43:42 TRACK 11 AUDIO TITLE "Evil Woman (Don't Play Your Games With Me)" PERFORMER "Black Sabbath" INDEX 00 51:46:51 INDEX 01 51:48:34 TRACK 12 AUDIO TITLE "Sabbath Bloody Sabbath" PERFORMER "Black Sabbath" INDEX 00 55:09:48 INDEX 01 55:11:31 TRACK 13 AUDIO TITLE "Black Sabbath" PERFORMER "Black Sabbath" INDEX 00 60:55:28 INDEX 01 60:57:11 TRACK 14 AUDIO TITLE "N.I.B" PERFORMER "Black Sabbath" INDEX 00 67:13:51 INDEX 01 67:15:34
[CUETools log; Date: 11.01.2013 14:36:16; Version: 2.1.4][CTDB TOCID: j82fVCOTQN18Wi.PVGKsUOFLNsY-] found.Track | CTDB Status 1 | (39/39) Accurately ripped 2 | (39/39) Accurately ripped 3 | (39/39) Accurately ripped 4 | (39/39) Accurately ripped 5 | (39/39) Accurately ripped 6 | (39/39) Accurately ripped 7 | (39/39) Accurately ripped 8 | (38/39) Accurately ripped 9 | (39/39) Accurately ripped 10 | (39/39) Accurately ripped 11 | (39/39) Accurately ripped 12 | (39/39) Accurately ripped 13 | (38/39) Accurately ripped 14 | (38/39) Accurately ripped[AccurateRip ID: 0024e5e9-018c3f8d-b111310e] found.Track [ CRC | V2 ] Status 01 [e122dd8a|e61300e0] (31+11/48) Accurately ripped 02 [c72c5ab9|5583d245] (31+11/48) Accurately ripped 03 [3a037c8e|ac0057f4] (32+11/49) Accurately ripped 04 [e1c147b0|03d5cd40] (32+11/49) Accurately ripped 05 [bfa510d5|a72e027e] (32+11/49) Accurately ripped 06 [f8a8320b|7ce124d2] (32+11/49) Accurately ripped 07 [103c9e14|033aa833] (32+10/48) Accurately ripped 08 [23ef67eb|f24a9ae1] (32+11/49) Accurately ripped 09 [b6fc4e16|5865b82e] (32+11/49) Accurately ripped 10 [fd2244c5|146a50da] (32+11/49) Accurately ripped 11 [ad435e6e|4b72d3d3] (32+11/49) Accurately ripped 12 [ac7d4069|1f32c5d5] (32+11/49) Accurately ripped 13 [e979b727|fe5cbbdd] (32+11/49) Accurately ripped 14 [d3511074|59c40fa9] (32+10/48) Accurately rippedOffsetted by -646: 01 [8b5b3b30] (04/48) Accurately ripped 02 [7f4e9d3b] (04/48) Accurately ripped 03 [33051753] (04/49) Accurately ripped 04 [6476196e] (04/49) Accurately ripped 05 [bbdb68b0] (04/49) Accurately ripped 06 [26d6a4c2] (04/49) Accurately ripped 07 [02e35032] (04/48) Accurately ripped 08 [d8164d45] (04/49) Accurately ripped 09 [fdc2364f] (04/49) Accurately ripped 10 [fc120cae] (04/49) Accurately ripped 11 [a1228879] (04/49) Accurately ripped 12 [54abf293] (04/49) Accurately ripped 13 [b4ca9a51] (04/49) Accurately ripped 14 [aff4ef30] (04/48) Accurately rippedOffsetted by -30: 01 [601ab0c2] (00/48) No match (V2 was not tested) 02 [467719c9] (00/48) No match (V2 was not tested) 03 [f03eb2c6] (00/49) No match (V2 was not tested) 04 [0a101930] (00/49) No match (V2 was not tested) 05 [2987338b] (00/49) No match (V2 was not tested) 06 [828c393b] (00/49) No match (V2 was not tested) 07 [776b27c8] (00/48) No match (V2 was not tested) 08 [a79b08f6] (00/49) No match (V2 was not tested) 09 [9587a428] (00/49) No match (V2 was not tested) 10 [ea9f8b7d] (00/49) No match (V2 was not tested) 11 [98c56579] (00/49) No match (V2 was not tested) 12 [dff35ff9] (00/49) No match (V2 was not tested) 13 [112b6132] (00/49) No match (V2 was not tested) 14 [12d4f031] (00/48) No match (V2 was not tested)Offsetted by -12: 01 [a1fda393] (00/48) No match (V2 was not tested) 02 [de9d4a06] (00/48) No match (V2 was not tested) 03 [b023f069] (00/49) No match (V2 was not tested) 04 [d102a37e] (00/49) No match (V2 was not tested) 05 [70b49883] (00/49) No match (V2 was not tested) 06 [84e60d42] (00/49) No match (V2 was not tested) 07 [edeff685] (00/48) No match (V2 was not tested) 08 [f1c2853a] (00/49) No match (V2 was not tested) 09 [9910c342] (00/49) No match (V2 was not tested) 10 [edb84791] (00/49) No match (V2 was not tested) 11 [880068f2] (00/49) No match (V2 was not tested) 12 [d2900a7a] (00/49) No match (V2 was not tested) 13 [dbc770f3] (00/49) No match (V2 was not tested) 14 [b97336c7] (00/48) No match (V2 was not tested)

Track Peak [ CRC32 ] [W/O NULL] [ LOG ] -- 98,8 [B84E38C9] [F6F3F208] CRC32 01 98,3 [A2E2661C] [1DF8FFBE] 02 98,3 [83F2F962] [CF8E18E0] 03 98,0 [36279F75] [8DAD3121] 04 98,3 [904A6BC2] [174B067C] 05 98,3 [909203E6] [A5266155] 06 98,8 [72822144] [5E526243] 07 98,8 [6B68D97D] [93262250] 08 98,8 [BF056547] [4C750652] 09 98,8 [0881A58E] [E31B8422] 10 98,7 [E011DF3E] [79F4497E] 11 96,5 [FB574249] [E6E804BE] 12 98,8 [5B9B39FF] [ED27ADF8] 13 96,2 [3BBABF3E] [8779F216] 14 96,2 [E2300875] [B9849F82]
foobar2000 1.1.1 / Dynamic Range Meter 1.1.1log date: 2013-01-11 14:34:57

--------------------------------------------------------------------------------Analyzed: Black Sabbath / Greatest Hits--------------------------------------------------------------------------------

DR Peak RMS Duration Track--------------------------------------------------------------------------------DR8 -0.14 dB -9.19 dB 2:50 01-ParanoidDR8 -0.14 dB -9.33 dB 5:55 02-Iron ManDR10 -0.17 dB -12.66 dB 4:43 03-ChangesDR8 -0.14 dB -9.40 dB 6:16 04-Fairies Wear BootsDR7 -0.14 dB -9.11 dB 7:57 05-War PigsDR7 -0.10 dB -8.39 dB 3:50 06-Never Say DieDR8 -0.10 dB -9.39 dB 5:17 07-Children Of The GraveDR8 -0.10 dB -9.74 dB 4:25 08-The WizardDR9 -0.10 dB -11.36 dB 5:30 09-SnowblindDR7 -0.11 dB -8.38 dB 5:05 10-Sweet LeafDR8 -0.30 dB -9.89 dB 3:23 11-Evil Woman (Don't Play Your Games With Me)DR8 -0.10 dB -9.87 dB 5:46 12-Sabbath Bloody SabbathDR8 -0.33 dB -10.36 dB 6:18 13-Black SabbathDR8 -0.33 dB -9.93 dB 6:06 14-N.I.B--------------------------------------------------------------------------------

Number of tracks: 14Official DR value: DR8

Samplerate: 44100 HzChannels: 2Bits per sample: 16Bitrate: 954 kbpsCodec: FLAC
Огромное спасибо автору рипа!


Трекер:  [ 11-Янв-2013 23:48 ]

  

Скачать .torrent

Размер .torrent файла 12 KB


Размер: 547 MB
Хэш (hash) релиза: d6d4fd73f324b541d0c85b01847bf7b60a9a457f

Еще никто не оставлял запись к записи скачать торрент Black Sabbath - Greatest Hits - 2009 . Будь первым!

!Обратная связь