Скачать через торрент музыку David Bowie - Live In Los Angeles 1974 бесплатно без регистрации torrent

Если у вас наблюдаются проблемы со скриншотами, переходом по ссылками, скачиванием торрентов - проблемы в блокировщике рекламы AdBlock. #хорошегоДня!


Статистика раздачи
Размер:  592 MB   |    Зарегистрирован:  4 года 7 месяцев   |    .torrent скачан:  34 раза   |   
Раздают:  1  
   
Загрузка...
 
Автор Сообщение

Galfimbul

avatar Galfimbul


David Bowie / Live In Los Angeles 1974 (Bootleg)
Жанр: Classic Rock, Glam Rock
Страна-производитель диска: Italy
Год издания: 1990
Издатель (лейбл): SGRS Records (Luxemburg)
Номер по каталогу: SGRS 011/012
Matrix number: SGRS 011/012 OPTICAL
Страна: England
Аудиокодек: FLAC (*.flac)
Тип рипа: image+.cue (log&cue embedded)
Битрейт аудио: lossless
Продолжительность: 47:13 & 49:37
Источник (релизер): Личная коллекция
Наличие сканов в содержимом раздачи: да (300 dpi PNG)

Треклист:
01. [2:59] 1984
02. [2:36] Rebel Rebel
03. [5:22] Moonage Daydream
04. [7:43] Sweet Thing
05. [3:48] Changes
06. [3:48] Suffragette City
07. [5:55] Alladin Sane On Broadway
08. [3:35] All The Young Dudes
09. [3:12] Cracked Actor
10. [5:12] Rock'N Roll Whith Me
11. [3:03] Knock On Wood
1. [7:21] It's Gonna Be Me
2. [5:22] Space Oddity
3. [7:06] Diamond Dogs
4. [4:00] Big Brother
5. [6:05] Time
6. [5:48] The Jean Genie
7. [6:25] Rock 'N Roll Suicide
8. [7:31] John I'm Only Dancing
Exact Audio Copy V1.0 beta 3 from 29. August 2011

EAC extraction logfile from 13. November 2012, 4:14

David Bowie / Live In Los Angeles 1974 Part One (SGRS Records, SGRS 011)

Used drive : PLEXTOR DVDR PX-880SA Adapter: 5 ID: 0

Read mode : SecureUtilize accurate stream : YesDefeat audio cache : YesMake use of C2 pointers : No

Read offset correction : 6Overread into Lead-In and Lead-Out : NoFill up missing offset samples with silence : YesDelete leading and trailing silent blocks : NoNull samples used in CRC calculations : YesUsed interface : Native Win32 interface for Win NT & 2000

Used output format : User Defined EncoderSelected bitrate : 1024 kBit/sQuality : HighAdd ID3 tag : NoCommand line compressor : C:\Program Files\FLAC\flac.exeAdditional command line options : -8 -V %source% -o %dest%

TOC of the extracted CD

Track | Start | Length | Start sector | End sector --------------------------------------------------------- 1 | 0:00.32 | 2:58.63 | 32 | 13444 2 | 2:59.20 | 2:35.72 | 13445 | 25141 3 | 5:35.17 | 5:22.03 | 25142 | 49294 4 | 10:57.20 | 7:43.25 | 49295 | 84044 5 | 18:40.45 | 3:47.70 | 84045 | 101139 6 | 22:28.40 | 3:47.62 | 101140 | 118226 7 | 26:16.27 | 5:54.68 | 118227 | 144844 8 | 32:11.20 | 3:35.22 | 144845 | 160991 9 | 35:46.42 | 3:11.48 | 160992 | 175364 10 | 38:58.15 | 5:11.60 | 175365 | 198749 11 | 44:10.00 | 3:03.32 | 198750 | 212506

Range status and errors

Selected range

Filename C:\Mysterons [Skull_of_Sheeps]\David Bowie [1990] Live In Los Angeles 1974 (SGRS Records, SGRS 011,012)\Part One\David Bowie - Live In Los Angeles 1974 Part One (SGRS 011).wav

Peak level 81.3 % Extraction speed 7.9 X Range quality 100.0 % Test CRC EAF40B39 Copy CRC EAF40B39 Copy OK

No errors occurred

AccurateRip summary

Track 1 not present in databaseTrack 2 not present in databaseTrack 3 not present in databaseTrack 4 not present in databaseTrack 5 not present in databaseTrack 6 not present in databaseTrack 7 not present in databaseTrack 8 not present in databaseTrack 9 not present in databaseTrack 10 not present in databaseTrack 11 not present in database

None of the tracks are present in the AccurateRip database

End of status report

---- CUETools DB Plugin V2.1.4

[CTDB TOCID: eAiSRRB1cz.B2XzBFjGajFLtSEk-] disk not present in databaseSubmit result: eAiSRRB1cz.B2XzBFjGajFLtSEk- has been uploaded

==== Log checksum 8FF1D185CEC311D737648F31962697ACE4358D22F7DFEECFEEE8C772AAE829F9 ====
Exact Audio Copy V1.0 beta 3 from 29. August 2011

EAC extraction logfile from 13. November 2012, 5:27

David Bowie / Live In Los Angeles 1974 Part Two (SGRS Records, SGRS 012)

Used drive : PLEXTOR DVDR PX-880SA Adapter: 5 ID: 0

Read mode : SecureUtilize accurate stream : YesDefeat audio cache : YesMake use of C2 pointers : No

Read offset correction : 6Overread into Lead-In and Lead-Out : NoFill up missing offset samples with silence : YesDelete leading and trailing silent blocks : NoNull samples used in CRC calculations : YesUsed interface : Native Win32 interface for Win NT & 2000

Used output format : User Defined EncoderSelected bitrate : 1024 kBit/sQuality : HighAdd ID3 tag : NoCommand line compressor : C:\Program Files\FLAC\flac.exeAdditional command line options : -8 -V %source% -o %dest%

TOC of the extracted CD

Track | Start | Length | Start sector | End sector --------------------------------------------------------- 1 | 0:00.32 | 7:21.13 | 32 | 33119 2 | 7:21.45 | 5:22.12 | 33120 | 57281 3 | 12:43.57 | 7:06.18 | 57282 | 89249 4 | 19:50.00 | 3:59.47 | 89250 | 107221 5 | 23:49.47 | 6:04.48 | 107222 | 134569 6 | 29:54.20 | 5:47.45 | 134570 | 160639 7 | 35:41.65 | 6:25.00 | 160640 | 189514 8 | 42:06.65 | 7:31.17 | 189515 | 223356

Range status and errors

Selected range

Filename C:\Mysterons [Skull_of_Sheeps]\David Bowie [1990] Live In Los Angeles 1974 (SGRS Records, SGRS 011,012)\Part Two\David Bowie - Live In Los Angeles 1974 Part Two (SGRS 012).wav

Peak level 83.9 % Extraction speed 8.0 X Range quality 100.0 % Test CRC 06396396 Copy CRC 06396396 Copy OK

No errors occurred

AccurateRip summary

Track 1 not present in databaseTrack 2 not present in databaseTrack 3 not present in databaseTrack 4 not present in databaseTrack 5 not present in databaseTrack 6 not present in databaseTrack 7 not present in databaseTrack 8 not present in database

None of the tracks are present in the AccurateRip database

End of status report

---- CUETools DB Plugin V2.1.4

[CTDB TOCID: YfiIDODXNo6IfHubehbR7pZQFRs-] disk not present in databaseSubmit result: YfiIDODXNo6IfHubehbR7pZQFRs- has been uploaded

==== Log checksum 7EE396E43DDE05A729AE783CE2E6850D7124314F81A477CD6750932EA71F3A56 ====
[CUETools log; Date: 13.11.2012 4:15:58; Version: 2.1.4]Pregap length 00:00:32.[CTDB TOCID: eAiSRRB1cz.B2XzBFjGajFLtSEk-] found.Track | CTDB Status 1 | (1/1) Accurately ripped 2 | (1/1) Accurately ripped 3 | (1/1) Accurately ripped 4 | (1/1) Accurately ripped 5 | (1/1) Accurately ripped 6 | (1/1) Accurately ripped 7 | (1/1) Accurately ripped 8 | (1/1) Accurately ripped 9 | (1/1) Accurately ripped 10 | (1/1) Accurately ripped 11 | (1/1) Accurately ripped[AccurateRip ID: 001396c9-00abb08e-880b110b] disk not present in database.

Track Peak [ CRC32 ] [W/O NULL] [ LOG ] -- 81,3 [EAF40B39] [63C43D70] CRC32 01 81,3 [74680B3F] [823E74B3] 02 74,4 [7D5EFF79] [7B9819E3] 03 67,1 [08CF5D2E] [04E95CC3] 04 70,3 [E8403B41] [DF6ED1B1] 05 67,8 [85EBCF56] [0D9BE3CB] 06 66,8 [1E360C93] [291C2F67] 07 75,4 [EB1F8468] [66BA0E44] 08 71,3 [3C0829C7] [E8E7A1A6] 09 69,2 [97682D7B] [6D297EAC] 10 73,1 [43BFB44F] [2C091FFC] 11 73,2 [27C3B6A0] [2EE13D06]
[CUETools log; Date: 13.11.2012 5:31:14; Version: 2.1.4]Pregap length 00:00:32.[CTDB TOCID: YfiIDODXNo6IfHubehbR7pZQFRs-] found.Track | CTDB Status 1 | (1/1) Accurately ripped 2 | (1/1) Accurately ripped 3 | (1/1) Accurately ripped 4 | (1/1) Accurately ripped 5 | (1/1) Accurately ripped 6 | (1/1) Accurately ripped 7 | (1/1) Accurately ripped 8 | (1/1) Accurately ripped[AccurateRip ID: 000f2eac-00648c15-670ba208] disk not present in database.

Track Peak [ CRC32 ] [W/O NULL] [ LOG ] -- 83,9 [06396396] [D5DD2932] CRC32 01 83,9 [87BC8912] [43E7662C] 02 81,7 [7F87330D] [229BDABD] 03 80,8 [51FF82F7] [B3B5C319] 04 80,3 [58A1836C] [749095CB] 05 80,5 [0383F1AF] [75DB778F] 06 72,1 [FB9F322F] [42C5DC87] 07 77,0 [DAF6EAA7] [0C10761E] 08 76,0 [488FB5F8] [2493689C]
AUDIOCHECKER v2.0 beta (build 457) - by Dester - <a href="mailto:opdester@freemail.hu" class="postLink">opdester@freemail.hu</a>~~~~~~~~~~~~~~~~~~~~~~~~~~~~~~~~~~-=== DO NOT EDIT THIS FILE! ===-

Path: ...\Part One

1 -=- David Bowie - Live In Los Angeles 1974 Part One (SGRS 011).flac -=- CDDA (100%)

254303124
AUDIOCHECKER v2.0 beta (build 457) - by Dester - <a href="mailto:opdester@freemail.hu" class="postLink">opdester@freemail.hu</a>~~~~~~~~~~~~~~~~~~~~~~~~~~~~~~~~~~-=== DO NOT EDIT THIS FILE! ===-

Path: ...\Part Two

1 -=- David Bowie - Live In Los Angeles 1974 Part Two (SGRS 012).flac -=- CDDA (100%)

254971284


Трекер:  [ 11-Янв-2013 23:48 ]

  

Скачать .torrent

Размер .torrent файла 14 KB


Размер: 592 MB
Хэш (hash) релиза: 483808867892b40bd2a7a08e415d7fcb702e8932

Еще никто не оставлял запись к записи скачать торрент David Bowie - Live In Los Angeles 1974 . Будь первым!

!Обратная связь