Скачать через торрент [iPad] Клик: С пультом по жизни Click бесплатно русская версия torrent активатор

Если у вас наблюдаются проблемы со скриншотами, переходом по ссылками, скачиванием торрентов - проблемы в блокировщике рекламы AdBlock. #хорошегоДня!


Статистика раздачи
Размер:  1.84 GB   |    Зарегистрирован:  4 года 9 месяцев   |    .torrent скачан:  38 раз   |   
Раздают:  1  
   
Загрузка...
 
Автор Сообщение

Galfimbul

avatar Galfimbul


Клик: С пультом по жизни / Click

«Представьте, что у вас появился уникальный пульт... Которым можно изменить всю вашу жизнь?»

Год выпуска: 2006
Страна: США
Студия: Columbia Pictures Corporation, Revolution Studios, Happy Madison Productions, Original Film
Жанр: Фэнтези, комедия, драма
Продолжительность: 01:47:31
Рейтинг MPAA: PG-13
Перевод: Профессиональный (дублированный)
Оригинальная аудиодорожка: есть
Cубтитры: русские и английские

Режиссёр: Фрэнк Корачи/ Frank Coraci
Сценарий: Стив Корен, Марк О’Кифи
Продюссер: Джек Джиррапуто, Стив Корен, Нил Х. Мориц

В ролях: Адам Сэндлер, Кейт Бекинсейл, Кристофер Уокен, Дэвид Хэсселхофф, Генри Уинклер, Джули Кавнер, Шон Остин, Джозеф Кэстэнтон, Джона Хилл, Джейк Хоффман

Описание:
Архитектору-трудоголику попадает в руки пульт дистанционного управления, с помощью которого можно прокручивать жизненные ситуации вперед или назад. Но техника есть техника — у нее всегда сюрприз в запасе. Накопив собственную память, пульт сам начинает управлять скоростью перемотки и выбором момента жизни. Только теперь герой понимает, как неверно он использовал время…

Доп. информация:


Качество исходника: BDRemux - Клик: С пультом по жизни / Click / 2006 / ДБ, СТ / Blu-Ray Remux (1080p)
Качество: BDRip
Разрешение: 1024х560
Формат: MP4
Видео: H.264,1,85:1 , 2200kbit/s; 23.976fps

Аудио 1: Russian/Dub, AAC, 125kbit/s; 2ch; 48KHz
Аудио 2: English/Original, AAC, 124kbit/s; 2ch; 48KHz
XID: Apple:vendor_id:2006-77576contentID: 277048290Screenwriters: Стив Корен, Марк О’КифиProducers: Джек Джиррапуто, Стив Корен, Нил Х. МорицDirector: Фрэнк КорачиCast: Адам Сэндлер, Кейт Бекинсейл, Кристофер Уокен, Дэвид Хэсселхофф, Генри Уинклер, Джули Кавнер, Шон Остин, Джозеф Кэстэнтон, Джона Хилл, Джейк ХоффманRating: 4Long Description: Архитектору-трудоголику попадает в руки пульт дистанционного управления, с помощью которого можно прокручивать жизненные ситуации вперед или назад. Но техника есть техника — у нее всегда сюрприз в запасе. Накопив собственную память, пульт сам начинает управлять скоростью перемотки и выбором момента жизни. Только теперь герой понимает, как неверно он использовал время…Description: Архитектору-трудоголику попадает в руки пульт дистанционного управления, с помощью которого можно прокручивать жизненные ситуации вперед или назад.Release Date: 2006-06-22T15:00:00ZGenre: ComedyArtist: Фрэнк КорачиName: Клик: С пультом по жизни
GeneralComplete name : /Users/imac/HandBrake/Klik.S.pultom.po.zhizni.2006.x264.BDRip.1024x.m4vFormat : MPEG-4Codec ID : M4VFile size : 1.84 GiBDuration : 1h 47mnOverall bit rate mode : VariableOverall bit rate : 2 456 KbpsMovie name : Клик: С пультом по жизниPerformer : Фрэнк КорачиGenre : ComedyRecorded date : UTC 2006-06-22 15:00:00Encoded date : UTC 2013-01-10 19:21:05Tagged date : UTC 2013-01-10 19:22:22Cover : Yesdesc : Архитектору-трудоголику попадает в руки пульт дистанционного управления, с помощью которого можно прокручивать жизненные ситуации вперед или назад.ldes : Архитектору-трудоголику попадает в руки пульт дистанционного управления, с помощью которого можно прокручивать жизненные ситуации вперед или назад. Но техника есть техника — у нее всегда сюрприз в запасе. Накопив собственную память, пульт сам начинает управлять скоростью перемотки и выбором момента жизни. Только теперь герой понимает, как неверно он использовал время…stik : 9rtng : 0cnID : 277048290xid : Apple:vendor_id:2006-77576iTunEXTC : mpaa|PG-13|300|iTunMOVI : <?xml version="1.0" encoding="UTF-8"?> / <!DOCTYPE plist PUBLIC "-//Apple//DTD PLIST 1.0//EN" "http://www.apple.com/DTDs/PropertyList-1.0.dtd"> / <plist version="1.0"> / <dict> / <key>cast</key> / <array> / <dict> / <key>name</key> / <string>Адам Сэндлер</string> / </dict> / <dict> / <key>name</key> / <string>Кейт Бекинсейл</string> / </dict> / <dict> / <key>name</key> / <string>Кристофер Уокен</string> / </dict> / <dict> / <key>name</key> / <string>Дэвид Хэсселхофф</string> / </dict> / <dict> / <key>name</key> / <string>Генри Уинклер</string> / </dict> / <dict> / <key>name</key> / <string>Джули Кавнер</string> / </dict> / <dict> / <key>name</key> / <string>Шон Остин</string> / </dict> / <dict> / <key>name</key> / <string>Джозеф Кэстэнтон</string> / </dict> / <dict> / <key>name</key> / <string>Джона Хилл</string> / </dict> / <dict> / <key>name</key> / <string>Джейк Хоффман</string> / </dict> / </array> / <key>directors</key> / <array> / <dict> / <key>name</key> / <string>Фрэнк Корачи</string> / </dict> / </array> / <key>producers</key> / <array> / <dict> / <key>name</key> / <string>Джек Джиррапуто</string> / </dict> / <dict> / <key>name</key> / <string>Стив Корен</string> / </dict> / <dict> / <key>name</key> / <string>Нил Х. Мориц</string> / </dict> / </array> / <key>screenwriters</key> / <array> / <dict> / <key>name</key> / <string>Стив Корен</string> / </dict> / <dict> / <key>name</key> / <string>Марк О’Кифи</string> / </dict> / </array> / </dict> / </plist>

VideoID : 1Format : AVCFormat/Info : Advanced Video CodecFormat profile : <a href="mailto:High@L3.2Format" class="postLink">High@L3.2Format</a> settings, CABAC : YesFormat settings, ReFrames : 9 framesCodec ID : avc1Codec ID/Info : Advanced Video CodingDuration : 1h 47mnBit rate mode : VariableBit rate : 2 200 KbpsWidth : 1 024 pixelsHeight : 560 pixelsDisplay aspect ratio : 1.85:1Frame rate mode : VariableFrame rate : 23.976 fpsMinimum frame rate : 12.048 fpsMaximum frame rate : 1 428.571 fpsColor space : YUVChroma subsampling : 4:2:0Bit depth : 8 bitsScan type : ProgressiveBits/(Pixel*Frame) : 0.160Stream size : 1.65 GiB (90%)Writing library : x264 core 120Encoding settings : cabac=1 / ref=9 / deblock=1:0:0 / analyse=0x3:0x113 / me=umh / subme=9 / psy=1 / psy_rd=1.00:0.00 / mixed_ref=1 / me_range=32 / chroma_me=1 / trellis=1 / 8x8dct=1 / cqm=0 / deadzone=21,11 / fast_pskip=1 / chroma_qp_offset=-2 / threads=12 / sliced_threads=0 / nr=0 / decimate=1 / interlaced=0 / bluray_compat=0 / constrained_intra=0 / bframes=6 / b_pyramid=2 / b_adapt=2 / b_bias=0 / direct=1 / weightb=1 / open_gop=0 / weightp=2 / keyint=240 / keyint_min=24 / scenecut=40 / intra_refresh=0 / rc_lookahead=40 / rc=2pass / mbtree=1 / bitrate=2200 / ratetol=1.0 / qcomp=0.60 / qpmin=3 / qpmax=69 / qpstep=4 / cplxblur=20.0 / qblur=0.5 / ip_ratio=1.40 / aq=1:1.00Language : EnglishEncoded date : UTC 2013-01-10 19:21:05Tagged date : UTC 2013-01-10 19:22:14Color primaries : BT.709-5, BT.1361, IEC 61966-2-4, SMPTE RP177Transfer characteristics : BT.709-5, BT.1361Matrix coefficients : BT.709-5, BT.1361, IEC 61966-2-4 709, SMPTE RP177

Audio #1ID : 2Format : AACFormat/Info : Advanced Audio CodecFormat profile : LCCodec ID : 40Duration : 1h 47mnBit rate mode : VariableBit rate : 125 KbpsMaximum bit rate : 208 KbpsChannel(s) : 2 channelsChannel positions : Front: L RSampling rate : 48.0 KHzCompression mode : LossyStream size : 96.3 MiB (5%)Language : RussianEncoded date : UTC 2013-01-10 19:21:05Tagged date : UTC 2013-01-10 19:22:18

Audio #2ID : 3Format : AACFormat/Info : Advanced Audio CodecFormat profile : LCCodec ID : 40Duration : 1h 47mnBit rate mode : VariableBit rate : 124 KbpsMaximum bit rate : 212 KbpsChannel(s) : 2 channelsChannel positions : Front: L RSampling rate : 48.0 KHzCompression mode : LossyStream size : 95.3 MiB (5%)Language : EnglishEncoded date : UTC 2013-01-10 19:21:05Tagged date : UTC 2013-01-10 19:22:22

Text #1ID : 4Format : Timed textMuxing mode : sbtlCodec ID : tx3gDuration : 1h 41mnBit rate mode : VariableBit rate : 266 bpsStream size : 197 KiB (0%)Language : EnglishEncoded date : UTC 2013-01-10 19:21:05Tagged date : UTC 2013-01-10 19:22:22

Text #2ID : 5Format : Timed textMuxing mode : sbtlCodec ID : tx3gDuration : 1h 41mnBit rate mode : VariableBit rate : 82 bpsStream size : 61.0 KiB (0%)Language : EnglishEncoded date : UTC 2013-01-10 19:21:05Tagged date : UTC 2013-01-10 19:22:22
x264 [info]: frame I:1692 Avg QP:17.68 size: 92045 PSNR Mean Y:45.37 U:47.70 V:48.46 Avg:46.08 Global:45.78x264 [info]: frame P:33139 Avg QP:20.66 size: 25710 PSNR Mean Y:43.43 U:46.06 V:47.02 Avg:44.18 Global:43.29x264 [info]: frame B:119849 Avg QP:22.96 size: 6392 PSNR Mean Y:41.58 U:45.09 V:46.22 Avg:42.53 Global:42.15x264 [info]: consecutive B-frames: 2.3% 2.5% 5.2% 25.7% 13.9% 33.8% 16.6%x264 [info]: mb I I16..4: 12.3% 64.0% 23.6%x264 [info]: mb P I16..4: 2.0% 6.9% 1.9% P16..4: 39.2% 21.9% 15.4% 0.0% 0.0% skip:12.8%x264 [info]: mb B I16..4: 0.1% 0.7% 0.2% B16..8: 41.5% 6.8% 2.1% direct: 2.8% skip:45.9% L0:45.1% L1:47.6% BI: 7.3%x264 [info]: 8x8 transform intra:64.6% inter:70.7%x264 [info]: coded y,uvDC,uvAC intra: 80.8% 83.9% 61.0% inter: 20.4% 22.9% 3.4%x264 [info]: i16 v,h,dc,p: 40% 26% 7% 26%x264 [info]: i8 v,h,dc,ddl,ddr,vr,hd,vl,hu: 8% 8% 3% 11% 16% 15% 15% 12% 12%x264 [info]: i4 v,h,dc,ddl,ddr,vr,hd,vl,hu: 8% 12% 3% 9% 15% 13% 15% 11% 14%x264 [info]: i8c dc,h,v,p: 35% 27% 20% 18%x264 [info]: Weighted P-Frames: Y:2.7% UV:1.6%x264 [info]: ref P L0: 47.2% 11.0% 18.5% 6.2% 5.7% 3.7% 3.8% 1.8% 2.1% 0.1% 0.0%x264 [info]: ref B L0: 72.0% 12.6% 6.4% 3.2% 2.3% 2.0% 1.1% 0.3%x264 [info]: ref B L1: 91.5% 8.5%x264 [info]: SSIM Mean Y:0.9675354 (14.886db)x264 [info]: PSNR Mean Y:42.019 U:45.330 V:46.413 Avg:42.920 Global:42.401 kb/s:2199.57


Трекер:  [ 11-Янв-2013 23:27 ]

  

Скачать .torrent

Размер .torrent файла 37 KB


Размер: 1.84 GB
Хэш (hash) релиза: f29f9c476f49928c324c1570f955cd34dddcebc2

Еще никто не оставлял запись к записи скачать торрент [iPad] Клик: С пультом по жизни Click . Будь первым!

!Обратная связь