Скачать через торрент [iPad] Тайны подводного мира Deep Sea бесплатно русская версия torrent активатор

Если у вас наблюдаются проблемы со скриншотами, переходом по ссылками, скачиванием торрентов - проблемы в блокировщике рекламы AdBlock. #хорошегоДня!


Статистика раздачи
Размер:  1.07 GB   |    Зарегистрирован:  4 года 9 месяцев   |    .torrent скачан:  31 раз   |   
Раздают:  1  
   
Загрузка...
 
Автор Сообщение

Galfimbul

avatar Galfimbul


Тайны подводного мира / Deep Sea

«Sea life in a whole new way»

Год выпуска: 2006
Страна: США, Канада
Студия: IMAX Corporation, Warner Bros. Pictures
Жанр: Документальный
Продолжительность: 00:40:49
Рейтинг MPAA: G
Перевод: Профессиональный (дублированный)
Оригинальная аудиодорожка: есть
Cубтитры: нет

Режиссёр: Ховард Холл/Ховард Холл
Продюссер: Тони Майерс, Брэд Болл, Грем Фергюсон

В ролях: Джонни Депп, Кейт Уинслет

Описание:
Корпорация «IMAX» представляет фильм о тайнах морских глубин. Зрители знакомятся с уникальнейшими обитателями подводного мира и узнают о необычных порядках и законах, царящих на дне мирового океана.

Доп. информация:


Качество исходника: BDRemux - Тайны подводного мира / Deep Sea / 2006 / ДБ / Blu-Ray Remux 2D (1080p)
Качество: BDRip
Разрешение: 1024х576
Формат: MP4
Видео: H.264, 16:9 , 3500kbit/s; 23.976fps

Аудио 1: Russian/Dub, AAC, 127kbit/s; 2ch; 48KHz
Аудио 2: English/Original, AAC, 127kbit/s; 2ch; 48KHz
XID: Apple:vendor_id:2006-161190contentID: 359574124Producers: Тони Майерс, Брэд Болл, Грем ФергюсонDirector: Ховард ХоллCast: Джонни Депп, Кейт УинслетRating: 2Long Description: Корпорация «IMAX» представляет фильм о тайнах морских глубин. Зрители знакомятся с уникальнейшими обитателями подводного мира и узнают о необычных порядках и законах, царящих на дне мирового океана.Description: Корпорация «IMAX» представляет фильм о тайнах морских глубин.Release Date: 2006-03-03T14:00:00ZGenre: DocumentaryArtist: Ховард ХоллName: Тайны подводного мира
GeneralComplete name : /Users/imac/HandBrake/Tajna.podvodnogo.mira.2006.x264.BDRip.1024x.m4vFormat : MPEG-4Codec ID : M4VFile size : 1.07 GiBDuration : 40mn 49sOverall bit rate mode : VariableOverall bit rate : 3 765 KbpsMovie name : Тайны подводного мираPerformer : Ховард ХоллGenre : DocumentaryRecorded date : UTC 2006-03-03 14:00:00Encoded date : UTC 2013-01-11 09:12:29Tagged date : UTC 2013-01-11 09:13:01Cover : Yesdesc : Корпорация «IMAX» представляет фильм о тайнах морских глубин.ldes : Корпорация «IMAX» представляет фильм о тайнах морских глубин. Зрители знакомятся с уникальнейшими обитателями подводного мира и узнают о необычных порядках и законах, царящих на дне мирового океана.stik : 9rtng : 0cnID : 359574124xid : Apple:vendor_id:2006-161190iTunEXTC : mpaa|G|100|iTunMOVI : <?xml version="1.0" encoding="UTF-8"?> / <!DOCTYPE plist PUBLIC "-//Apple//DTD PLIST 1.0//EN" "http://www.apple.com/DTDs/PropertyList-1.0.dtd"> / <plist version="1.0"> / <dict> / <key>cast</key> / <array> / <dict> / <key>name</key> / <string>Джонни Депп</string> / </dict> / <dict> / <key>name</key> / <string>Кейт Уинслет</string> / </dict> / </array> / <key>directors</key> / <array> / <dict> / <key>name</key> / <string>Ховард Холл</string> / </dict> / </array> / <key>producers</key> / <array> / <dict> / <key>name</key> / <string>Тони Майерс</string> / </dict> / <dict> / <key>name</key> / <string>Брэд Болл</string> / </dict> / <dict> / <key>name</key> / <string>Грем Фергюсон</string> / </dict> / </array> / </dict> / </plist>

VideoID : 1Format : AVCFormat/Info : Advanced Video CodecFormat profile : <a href="mailto:High@L4.0Format" class="postLink">High@L4.0Format</a> settings, CABAC : YesFormat settings, ReFrames : 9 framesCodec ID : avc1Codec ID/Info : Advanced Video CodingDuration : 40mn 49sBit rate mode : VariableBit rate : 3 500 KbpsWidth : 1 024 pixelsHeight : 576 pixelsDisplay aspect ratio : 16:9Frame rate mode : VariableFrame rate : 23.976 fpsMinimum frame rate : 12.006 fpsMaximum frame rate : 24.272 fpsColor space : YUVChroma subsampling : 4:2:0Bit depth : 8 bitsScan type : ProgressiveBits/(Pixel*Frame) : 0.247Stream size : 1 023 MiB (93%)Writing library : x264 core 120Encoding settings : cabac=1 / ref=9 / deblock=1:0:0 / analyse=0x3:0x113 / me=umh / subme=9 / psy=1 / psy_rd=1.00:0.00 / mixed_ref=1 / me_range=32 / chroma_me=1 / trellis=1 / 8x8dct=1 / cqm=0 / deadzone=21,11 / fast_pskip=1 / chroma_qp_offset=-2 / threads=12 / sliced_threads=0 / nr=0 / decimate=1 / interlaced=0 / bluray_compat=0 / constrained_intra=0 / bframes=6 / b_pyramid=2 / b_adapt=2 / b_bias=0 / direct=1 / weightb=1 / open_gop=0 / weightp=2 / keyint=240 / keyint_min=24 / scenecut=40 / intra_refresh=0 / rc_lookahead=40 / rc=2pass / mbtree=1 / bitrate=3500 / ratetol=1.0 / qcomp=0.60 / qpmin=3 / qpmax=69 / qpstep=4 / cplxblur=20.0 / qblur=0.5 / ip_ratio=1.40 / aq=1:1.00Language : EnglishEncoded date : UTC 2013-01-11 09:12:29Tagged date : UTC 2013-01-11 09:12:57Color primaries : BT.709-5, BT.1361, IEC 61966-2-4, SMPTE RP177Transfer characteristics : BT.709-5, BT.1361Matrix coefficients : BT.709-5, BT.1361, IEC 61966-2-4 709, SMPTE RP177

Audio #1ID : 2Format : AACFormat/Info : Advanced Audio CodecFormat profile : LCCodec ID : 40Duration : 40mn 49sBit rate mode : VariableBit rate : 127 KbpsMaximum bit rate : 180 KbpsChannel(s) : 2 channelsChannel positions : Front: L RSampling rate : 48.0 KHzCompression mode : LossyStream size : 37.1 MiB (3%)Language : RussianEncoded date : UTC 2013-01-11 09:12:29Tagged date : UTC 2013-01-11 09:12:59

Audio #2ID : 3Format : AACFormat/Info : Advanced Audio CodecFormat profile : LCCodec ID : 40Duration : 40mn 49sBit rate mode : VariableBit rate : 127 KbpsMaximum bit rate : 180 KbpsChannel(s) : 2 channelsChannel positions : Front: L RSampling rate : 48.0 KHzCompression mode : LossyStream size : 37.1 MiB (3%)Language : EnglishEncoded date : UTC 2013-01-11 09:12:29Tagged date : UTC 2013-01-11 09:13:01
x264 [info]: frame I:295 Avg QP:15.32 size:133509 PSNR Mean Y:48.03 U:50.37 V:50.58 Avg:48.65 Global:47.81x264 [info]: frame P:15415 Avg QP:18.18 size: 41501 PSNR Mean Y:45.89 U:48.40 V:48.59 Avg:46.56 Global:45.01x264 [info]: frame B:43015 Avg QP:21.08 size: 9139 PSNR Mean Y:44.13 U:47.47 V:47.76 Avg:44.97 Global:43.89x264 [info]: consecutive B-frames: 2.9% 3.0% 4.3% 65.1% 16.6% 5.3% 2.8%x264 [info]: mb I I16..4: 12.0% 61.4% 26.6%x264 [info]: mb P I16..4: 1.1% 4.5% 1.9% P16..4: 35.8% 25.9% 20.7% 0.0% 0.0% skip:10.2%x264 [info]: mb B I16..4: 0.1% 0.4% 0.3% B16..8: 39.4% 8.9% 3.7% direct: 5.5% skip:41.9% L0:38.5% L1:43.9% BI:17.6%x264 [info]: 8x8 transform intra:59.6% inter:62.8%x264 [info]: coded y,uvDC,uvAC intra: 84.0% 82.2% 65.0% inter: 30.7% 26.8% 8.0%x264 [info]: i16 v,h,dc,p: 49% 15% 9% 27%x264 [info]: i8 v,h,dc,ddl,ddr,vr,hd,vl,hu: 4% 9% 4% 11% 17% 12% 18% 10% 16%x264 [info]: i4 v,h,dc,ddl,ddr,vr,hd,vl,hu: 4% 7% 3% 9% 18% 11% 19% 10% 18%x264 [info]: i8c dc,h,v,p: 47% 24% 11% 17%x264 [info]: Weighted P-Frames: Y:16.4% UV:6.6%x264 [info]: ref P L0: 47.9% 15.2% 13.9% 6.3% 4.7% 3.9% 3.3% 2.2% 2.1% 0.5% 0.0%x264 [info]: ref B L0: 82.1% 8.4% 3.8% 1.9% 1.5% 1.2% 0.8% 0.4%x264 [info]: ref B L1: 94.2% 5.8%x264 [info]: SSIM Mean Y:0.9842297 (18.022db)x264 [info]: PSNR Mean Y:44.612 U:47.732 V:47.991 Avg:45.404 Global:44.167 kb/s:3502.06


Трекер:  [ 11-Янв-2013 23:27 ]

  

Скачать .torrent

Размер .torrent файла 22 KB


Размер: 1.07 GB
Хэш (hash) релиза: 584a29c75ea3eeb673b25b34201c8ba5ddd670a3

Еще никто не оставлял запись к записи скачать торрент [iPad] Тайны подводного мира Deep Sea . Будь первым!

!Обратная связь