Скачать через торрент музыку Darrel Higham with The Kelly Four - Darrel Higham with The Kelly Four бесплатно без регистрации torrent

Если у вас наблюдаются проблемы со скриншотами, переходом по ссылками, скачиванием торрентов - проблемы в блокировщике рекламы AdBlock. #хорошегоДня!


Статистика раздачи
Размер:  293 MB   |    Зарегистрирован:  4 года 7 месяцев   |    .torrent скачан:  26 раз   |   
Раздают:  1  
   
Загрузка...
 
Автор Сообщение

Galfimbul

avatar Galfimbul


Darrel Higham with The Kelly Four / Darrel Higham with The Kelly Four (1992)

Жанр: Rock'n'Roll,Rockabilly
Год издания: 2007
Аудиокодек: FLAC (*.flac)
Тип рипа: image+.cue
Битрейт аудио: lossless
Продолжительность: 45:44
Источник (релизер): my disc
Наличие сканов в содержимом раздачи: да
Треклист:
01. C'mon Everybody [0:01:58.50]
02. Twenty Flight Rock [0:01:50.74]
03. My Way [0:02:10.09]
04. Hallelujah I Love Her So [0:02:17.50]
05. Little Angel [0:01:49.08]
06. Jeanie Jeanie Jeanie [0:02:28.26]
07. Somethin' Else [0:02:02.30]
08. Lawdy Miss Clawdy [0:02:55.09]
09. Milk Cow Blues [0:03:06.26]
10. Pink Pegged Slacks [0:02:36.63]
11. What Am I Living For ? [0:03:35.01]
12. Summertime Blues [0:02:05.23]
13. Interview From KRIB,Mason City With Jim Stivers & Darrel Higham-Bonus [0:12:48.11]
14. Hallelujah I Love Her So-Live Radio Performance-Bonus [0:02:03.00]
15. Summertime Blues-As Above-Bonus [0:01:57.13]
Exact Audio Copy V0.99 prebeta 4 from 23. January 2008

Отчёт EAC об извлечении, выполненном 11. января 2013, 10:16

Darrel Higham / Darrel Higham And The Kelly Four

Дисковод: ASUS DRW-1814BL Adapter: 1 ID: 0

Режим чтения : ДостоверностьИспользование точного потока : ДаОтключение кэша аудио : ДаИспользование указателей C2 : Нет

Коррекция смещения при чтении : 6Способность читать области Lead-in и Lead-out : НетЗаполнение пропущенных сэмплов тишиной : ДаУдаление блоков с тишиной в начале и конце : НетПри вычислениях CRC использовались нулевые сэмплы : ДаИнтерфейс : Установленный внешний ASPI-интерфейс

Выходной формат : Пользовательский кодировщикВыбранный битрейт : 1024 kBit/sКачество : ВысокийДобавление ID3-тэга : НетУтилита сжатия : C:\Program Files\Exact Audio Copy\FLAC\FLAC.EXEДополнительные параметры : -6 -V -T "ARTIST=%a" -T "TITLE=%t" -T "ALBUM=%g" -T "DATE=%y" -T "TRACKNUMBER=%n" -T "GENRE=%m" -T "COMMENT=%e" %s -o %d

TOC извлечённого CD

Трек | Старт | Длительность | Начальный сектор | Конечный сектор --------------------------------------------------------------------- 1 | 0:00.00 | 1:58.50 | 0 | 8899 2 | 1:58.50 | 1:50.74 | 8900 | 17223 3 | 3:49.49 | 2:10.09 | 17224 | 26982 4 | 5:59.58 | 2:17.50 | 26983 | 37307 5 | 8:17.33 | 1:49.08 | 37308 | 45490 6 | 10:06.41 | 2:28.26 | 45491 | 56616 7 | 12:34.67 | 2:02.30 | 56617 | 65796 8 | 14:37.22 | 2:55.09 | 65797 | 78930 9 | 17:32.31 | 3:06.26 | 78931 | 92906 10 | 20:38.57 | 2:36.63 | 92907 | 104669 11 | 23:15.45 | 3:35.01 | 104670 | 120795 12 | 26:50.46 | 2:05.23 | 120796 | 130193 13 | 28:55.69 | 12:48.11 | 130194 | 187804 14 | 41:44.05 | 2:03.00 | 187805 | 197029 15 | 43:47.05 | 1:57.13 | 197030 | 205817

Характеристики диапазона извлечения и сообщения об ошибках

Выбранный диапазон

Имя файла D:\loSSleSS\D.Higham'92\Darrel Higham - Darrel Higham And The Kelly Four.wav

Пиковый уровень 100.0 % Качество диапазона 100.0 % CRC теста 74A649AF CRC копии 74A649AF Копирование... OK

Ошибок не произошло

AccurateRip: сводка

Трек 1 точное извлечение (доверие 1) [52D11D2D]Трек 2 точное извлечение (доверие 1) [E655F20C]Трек 3 точное извлечение (доверие 1) [3E654379]Трек 4 точное извлечение (доверие 1) [4572AF01]Трек 5 точное извлечение (доверие 1) [52A8FDB8]Трек 6 точное извлечение (доверие 1) [3F48B796]Трек 7 точное извлечение (доверие 1) [AE3D9016]Трек 8 точное извлечение (доверие 1) [A2B8ABFB]Трек 9 точное извлечение (доверие 1) [AD535CA5]Трек 10 точное извлечение (доверие 1) [1E75E60A]Трек 11 точное извлечение (доверие 1) [56BBDD4C]Трек 12 точное извлечение (доверие 1) [78FA7F91]Трек 13 точное извлечение (доверие 1) [9F25C825]Трек 14 точное извлечение (доверие 1) [13FB388A]Трек 15 точное извлечение (доверие 1) [DADFB2FC]

Все треки извлечены точно

Конец отчёта
Darrel Higham с конца 80-х начал активно работать ведущим гитаристом с группами, играющими в стиле рокабили. Спустя некоторое время, а именно в середине 90-х, гитарист начинает создавать свою группу и сразу записывает Darrel Higham & The Enforcers. Это были сольные проекты Darrel Higham. В течение 6 месяцев 1992 года гитарист работал с дорожной группой Эдди Кокрана в качестве их лидера для проведения концертов и записей в Соединенных Штатах Америки.Был приглашен работать в театр Принца Уэльского в 1996 году, исполнял в музыкальной постановке роли Скотти Мура и Эдди Кокрана. После 8 месяцев работы в театре Higham начал участвовать в течение нескольких лет в различных туристических театрализированных шоу, что привело к постоянной работе в студиях Посольства и в студиях звукозаписи, записывая для художников звуки инструментов.2008-2010 годы для Higham также были успешными. Был записан альбом «Погром», который носил экспериментальный характер.
Darrel Higham-vocals & guitars
Jim Stivers-piano & vocals (on trk.8,bass & vocals on trk.12)
Dave Shriver-bass guitar
Gene Riggio-drums
Rick Frazier-sax
Ron Shy-backing vocals


Трекер:  [ 11-Янв-2013 17:03 ]

  

Скачать .torrent

Размер .torrent файла 12 KB


Размер: 293 MB
Хэш (hash) релиза: 4adcdda8e6ff4802a9f9a16d08370e1fc689f31b

Еще никто не оставлял запись к записи скачать торрент Darrel Higham with The Kelly Four - Darrel Higham with The Kelly Four . Будь первым!

!Обратная связь