Скачать через торрент музыку (Instrumental Guitar Rock бесплатно без регистрации torrent

Если у вас наблюдаются проблемы со скриншотами, переходом по ссылками, скачиванием торрентов - проблемы в блокировщике рекламы AdBlock. #хорошегоДня!


Статистика раздачи
Размер:  300 MB   |    Зарегистрирован:  4 года 7 месяцев   |    .torrent скачан:  34 раза   |   
Раздают:  1  
   
Загрузка...
 
Автор Сообщение

Galfimbul

avatar Galfimbul


Ducks Can Groove / Different Frogs Different Times

Жанр: Instrumental Guitar Rock (lossless)
Страна-производитель диска: U.S.A.
Год издания: 2009
Издатель (лейбл): GROOVEYARD RECORDS
Номер по каталогу: DSG02
Страна: Sweden
Аудиокодек: FLAC (*.flac)
Тип рипа: image+.cue
Битрейт аудио: lossless
Продолжительность: 44:26:60
Источник (релизер): Оригинальный CD
Наличие сканов в содержимом раздачи: да
Треклист:
01. El Vino Did Flow [0:04:24.24]
02. Sisters Probably [0:04:15.01]
03. What's The Vibe (In the Second Half) [0:04:37.66]
04. Come One, Come All [0:04:50.57]
05. When Cherrys Are Red [0:03:33.19]
06. Melting Pot [0:05:55.15]
07. Anti Laugh (Laughter Of Hate) [0:06:22.00]
08. In The Hot Seat (LIke Me!) [0:03:43.65]
09. Different Frogs, Different Times [0:06:44.38]
Exact Audio Copy V0.99 prebeta 5 from 4. May 2009

Отчёт EAC об извлечении, выполненном 10. января 2013, 23:18

Ducks Can Groove / Different Frogs Different Times

Дисковод: PLEXTOR DVDR PX-880SA Adapter: 4 ID: 2

Режим чтения : ДостоверностьИспользование точного потока : ДаОтключение кэша аудио : ДаИспользование указателей C2 : Нет

Коррекция смещения при чтении : 6Способность читать области Lead-in и Lead-out : НетЗаполнение пропущенных сэмплов тишиной : ДаУдаление блоков с тишиной в начале и конце : НетПри вычислениях CRC использовались нулевые сэмплы : ДаИнтерфейс : Установленный внешний ASPI-интерфейс

Выходной формат : Внутренние WAV-операцииФормат сэмплов : 44.100 Гц; 16 бит; стерео

TOC извлечённого CD

Трек | Старт | Длительность | Начальный сектор | Конечный сектор --------------------------------------------------------------------- 1 | 0:00.00 | 4:24.24 | 0 | 19823 2 | 4:24.24 | 4:15.01 | 19824 | 38949 3 | 8:39.25 | 4:37.66 | 38950 | 59790 4 | 13:17.16 | 4:50.57 | 59791 | 81597 5 | 18:07.73 | 3:33.19 | 81598 | 97591 6 | 21:41.17 | 5:55.15 | 97592 | 124231 7 | 27:36.32 | 6:22.00 | 124232 | 152881 8 | 33:58.32 | 3:43.65 | 152882 | 169671 9 | 37:42.22 | 6:44.38 | 169672 | 200009

Характеристики диапазона извлечения и сообщения об ошибках

Выбранный диапазон

Имя файла M:\СВОИ\Ducks Can Groove - Different Frogs Different Times - 2009\Ducks Can Groove - Different Frogs Different Times.wav

Пиковый уровень 99.9 % Качество диапазона 99.9 % CRC теста 0DFC0D43 CRC копии 0DFC0D43 Копирование... OK

Ошибок не произошло

AccurateRip: сводка

Трек 1 нет в базе данныхТрек 2 нет в базе данныхТрек 3 нет в базе данныхТрек 4 нет в базе данныхТрек 5 нет в базе данныхТрек 6 нет в базе данныхТрек 7 нет в базе данныхТрек 8 нет в базе данныхТрек 9 нет в базе данных

Ни одного трека нет в базе AccurateRip

Конец отчёта
REM GENRE RockREM DATE 2009REM DISCID 720A6A09REM COMMENT "ExactAudioCopy v0.99pb5"PERFORMER "Ducks Can Groove "TITLE "Different Frogs Different Times"FILE "Ducks Can Groove - Different Frogs Different Times.flac" WAVE TRACK 01 AUDIO TITLE "El Vino Did Flow" PERFORMER "Ducks Can Groove " INDEX 01 00:00:00 TRACK 02 AUDIO TITLE "Sisters Probably" PERFORMER "Ducks Can Groove " INDEX 00 04:22:24 INDEX 01 04:24:24 TRACK 03 AUDIO TITLE "What's The Vibe (In the Second Half)" PERFORMER "Ducks Can Groove " INDEX 00 08:37:25 INDEX 01 08:39:25 TRACK 04 AUDIO TITLE "Come One, Come All" PERFORMER "Ducks Can Groove " INDEX 00 13:15:16 INDEX 01 13:17:16 TRACK 05 AUDIO TITLE "When Cherrys Are Red" PERFORMER "Ducks Can Groove " INDEX 00 18:05:73 INDEX 01 18:07:73 TRACK 06 AUDIO TITLE "Melting Pot" PERFORMER "Ducks Can Groove " INDEX 00 21:39:17 INDEX 01 21:41:17 TRACK 07 AUDIO TITLE "Anti Laugh (Laughter Of Hate)" PERFORMER "Ducks Can Groove " INDEX 00 27:34:32 INDEX 01 27:36:32 TRACK 08 AUDIO TITLE "In The Hot Seat (LIke Me!)" PERFORMER "Ducks Can Groove " INDEX 00 33:56:32 INDEX 01 33:58:32 TRACK 09 AUDIO TITLE "Different Frogs, Different Times" PERFORMER "Ducks Can Groove " INDEX 00 37:40:22 INDEX 01 37:42:22
-----------------------

DON'T MODIFY THIS FILE

-----------------------

PERFORMER: auCDtect Task Manager, ver. 1.5.1RC4 build 1.5.1.5Copyright (c) 2008-2010 y-soft. All rights reservedhttp://y-soft.org

ANALYZER: auCDtect: CD records authenticity detector, version 0.8.2Copyright (c) 2004 Oleg Berngardt. All rights reserved.Copyright (c) 2004 Alexander Djourik. All rights reserved.

FILE: Ducks Can Groove - Different Frogs Different Times.flac Size: 310055015 Hash: 1E15C8A1D1F9594645A1725C8CE4BD45 Accuracy: -m0 Conclusion: CDDA 100% Signature: F4A4099DB60915CE53B4E6867324D05765037D9B
Доп. информация: Альбом был выпущен 15 декабря 2009 на лейбле CD Baby.
Хендрикс вдохновил инструментальное power trio из Швеции, показывающее
аутентичные, ретро-70, космические, основанные на блюзе, джемы...
http://www.grooveyardrecords.com/duckscangroovefrogs-.html

http://www.cduniverse.com/productinfo.asp?pid=8094618&style=music

Трекер:  [ 10-Янв-2013 23:07 ]

  

Скачать .torrent

Размер .torrent файла 13 KB


Размер: 300 MB
Хэш (hash) релиза: 120ad5889052e2dca1730498bfea7c6c5bedf780

Торренты, похожие на (Instrumental Guitar Rock скачать торрент

Форум Название Автор Размер S L Добавлен
Rосk | Mеtаl | Аltеrnаtivе, Рunk, Indереndеnt (mр3) ·· (Instrumental Guitar Rock) Marco Tansini - Midnight Guitar - 2008, MP3, 320 kbps Galfimbul 124746369119 MB 0 0 1379752286

11:31

21-Сен-13

Зарубежный Rock ·· (Instrumental Guitar Rock, Bass guitar) Aram Bedrosian - Aram Bedrosian - 2007, MP3, 192-320 kbps Umakiro 6780327265 MB 0 0 1345554480

16:08

21-Авг-12

Rосk | Mеtаl | Аltеrnаtivе, Рunk, Indереndеnt (losslеss) ·· (Instrumental Guitar Rock) VA - VA - For The Love Of Guitar - 2010, FLAC (tracks+.cue), lossless Galfimbul 317400825303 MB 0 0 1334992140

10:09

21-Апр-12

Rосk | Mеtаl | Аltеrnаtivе, Рunk, Indереndеnt (losslеss) ·· (Instrumental Guitar / Rock) The Shadows - Memories 36 Guitar Moods - 2005, FLAC (image+.cue), lossless _N_ 963468538919 MB 0 0 1328092293

13:31

1-Фев-12

Rосk | Mеtаl | Аltеrnаtivе, Рunk, Indереndеnt (losslеss) ·· (Instrumental Guitar Rock/Guitar Virtuoso) Eric Johnson - Up Close - 2010, FLAC (image+.cue) lossless _N_ 408640144390 MB 0 0 1323548834

23:27

10-Дек-11

Rосk | Mеtаl | Аltеrnаtivе, Рunk, Indереndеnt (mр3) ·· (Instrumental Guitar Rock/Hard Rock) Neal Schon (& Jan Hammer) - Дискография (12 альбомов) - 1981-2015, MP3, 320 kbps Galfimbul 18668788711.74 GB 0 0 1438744591

06:16

5-Авг-15

Rосk | Mеtаl | Аltеrnаtivе, Рunk, Indереndеnt (mр3) ·· (Instrumental Guitar Rock, Art-Rock, New Age, World) Warren Cuccurullo (& Ustad Sultan Khan, DoubleYouSee) - Коллекция - 1996-2014 (6 релизов), MP3, 320 kbps Galfimbul 839722758801 MB 0 0 1411483438

17:43

23-Сен-14

Rосk | Mеtаl | Аltеrnаtivе, Рunk, Indереndеnt (mр3) ·· (Instrumental Guitar Rock/Hard Rock) Emerge - Sunset Coast - 2012, MP3, 320 kbps Galfimbul 126038016120 MB 0 0 1362537282

05:34

6-Мар-13

Зарубежный Rock ·· (Instrumental Guitar Rock / Hard Rock) Francesco Marras - Black Sheep - 2012, MP3 (tracks), 320 kbps Galfimbul 9539649191 MB 0 0 1352120520

16:02

5-Ноя-12

Зарубежный Rock ·· (Instrumental Guitar Rock / Hard Rock) Steve Saluto - Veritas - 2012, MP3 (tracks), 320 kbps Galfimbul 9912183195 MB 0 0 1351334580

13:43

27-Окт-12

Rосk | Mеtаl | Аltеrnаtivе, Рunk, Indереndеnt (losslеss) ·· (Instrumental Guitar Rock) JerryC - Canon Rock (EP) - 2009, APE (image+.cue), lossless Galfimbul 146756192140 MB 0 0 1334992140

10:09

21-Апр-12

Rосk | Mеtаl | Аltеrnаtivе, Рunk, Indереndеnt (mр3) ·· (Instrumental Guitar Rock/Melodic Rock/AOR) Mario Parga (& Tony Martin) - Discography 1991-2008 (2 Studio albums, 1 Single), MP3 (tracks), 320 kbps Umakiro 269699007257 MB 0 0 1331455380

11:43

11-Мар-12

Rосk | Mеtаl | Аltеrnаtivе, Рunk, Indереndеnt (mр3) ·· (Instrumental Guitar Rock\Hard Rock) Gary Hoey - Get A Grip - 1991, MP3, 320 kbps Umakiro 8716643983 MB 0 0 1331455620

11:47

11-Мар-12

Rосk | Mеtаl | Аltеrnаtivе, Рunk, Indереndеnt (mр3) ·· (Instrumental Guitar Rock) Eric Jason Brock - Here's To The Dreamers - 2017, MP3, 320 kbps Galfimbul 10192977097 MB 0 0 1494597097

16:51

12-Май-17

Rосk | Mеtаl | Аltеrnаtivе, Рunk, Indереndеnt (mр3) ·· (Instrumental Guitar Rock/Metal/Fusion) Miguel Torres - My Element - 2017, MP3, 320 kbps Galfimbul 115384289110 MB 0 0 1493447128

09:25

29-Апр-17

Rосk | Mеtаl | Аltеrnаtivе, Рunk, Indереndеnt (mр3) ·· (Instrumental Guitar Rock) Jack Falk Project - Big Machines - 2017, MP3, 320 kbps Galfimbul 116629301111 MB 0 0 1493301248

16:54

27-Апр-17

Rосk | Mеtаl | Аltеrnаtivе, Рunk, Indереndеnt (mр3) ·· (Instrumental Guitar Rock) Bruno Levesque - Going to Nowhereland - 2017, MP3, 128 kbps Galfimbul 5247255050 MB 2 0 1492708750

20:19

20-Апр-17

Rосk | Mеtаl | Аltеrnаtivе, Рunk, Indереndеnt (mр3) ·· (Instrumental Guitar Rock) Dark Iron - Infusion - 2017, MP3, 320 kbps Galfimbul 121580788116 MB 0 0 1490891714

19:35

30-Мар-17

Rосk | Mеtаl | Аltеrnаtivе, Рunk, Indереndеnt (mр3) ·· (Progressive Metal/Instrumental Guitar Rock) Andrea Boccarusso - Arcade Childhood - 2017, MP3, 320 kbps Galfimbul 132390361126 MB 0 0 1489473983

09:46

14-Мар-17

Rосk | Mеtаl | Аltеrnаtivе, Рunk, Indереndеnt (mр3) ·· (Instrumental Guitar Rock/Metal) Jonathan Munoz - Soundscape - 2017, MP3, 320 kbps Galfimbul 9824424394 MB 0 0 1489332832

18:33

12-Мар-17

Еще никто не оставлял запись к записи скачать торрент (Instrumental Guitar Rock . Будь первым!

!Обратная связь