Скачать через торрент [iPad] Исчезновение Элис Крид The Disappearance of Alice Creed бесплатно русская версия torrent активатор

Если у вас наблюдаются проблемы со скриншотами, переходом по ссылками, скачиванием торрентов - проблемы в блокировщике рекламы AdBlock. #хорошегоДня!


Статистика раздачи
Размер:  1.72 GB   |    Зарегистрирован:  4 года 9 месяцев   |    .torrent скачан:  30 раз   |   
Раздают:  1  
   
Загрузка...
 
Автор Сообщение

Galfimbul

avatar Galfimbul


Исчезновение Элис Крид / The Disappearance of Alice Creed

«Жертва может быть опасной»

Год выпуска: 2009
Страна: Великобритания
Студия: CinemaNX, Isle of Man Film
Жанр: Триллер, драма, криминал
Продолжительность: 01:40:08
Рейтинг MPAA: R
Перевод: Профессиональный (дублированный)
Оригинальная аудиодорожка: есть
Cубтитры: русские и английские

Режиссёр: Дж. Блэйксон/ J. Blakeson
Сценарий: Дж. Блэйксон
Продюссер: Адриан Стёрз, Стив Кристиан, Эндрю Фингрет

В ролях: Джемма Артертон, Мартин Компстон, Эдди Марсан

Описание:
Двое мужчин укрепляют непривлекательную английскую квартиру так, чтобы она могла использоваться как тюрьма, и затем похищают женщину и привязывают ее к кровати. До того, как зритель успевает опомниться, он будет погружен в очень неприятную и непростую ситуацию.

Доп. информация:


Качество исходника: Blu-Ray - Исчезновение Элис Крид / The Disappearance of Alice Creed / 2009 / ДБ, СТ / Blu-Ray (1080p)
Качество: BDRip
Разрешение: 1024х432
Формат: MP4
Видео: H.264, 2,40:1 , 2200kbit/s; 23.976fps

Аудио 1: Russian/Dub, AAC, 126kbit/s; 2ch; 48KHz
Аудио 2: English/Original, AAC, 125kbit/s; 2ch; 48KHz
XID: RG-Apple:vendor_id:2009-450476contentID: 403932229Screenwriters: Дж. БлэйксонProducers: Адриан Стёрз, Стив Кристиан, Эндрю ФингретDirector: Дж. БлэйксонCast: Джемма Артертон, Мартин Компстон, Эдди МарсанRating: 5Long Description: Двое мужчин укрепляют непривлекательную английскую квартиру так, чтобы она могла использоваться как тюрьма, и затем похищают женщину и привязывают ее к кровати. До того, как зритель успевает опомниться, он будет погружен в очень неприятную и непростую ситуацию.Description: Двое мужчин укрепляют непривлекательную английскую квартиру так, чтобы она могла использоваться как тюрьма, и затем похищают женщину и привязывают ее к кровати.Release Date: 2009-09-12T15:00:00ZGenre: ThrillerArtist: Дж. БлэйксонName: Исчезновение Элис Крид
GeneralComplete name : /Users/imac/HandBrake/Исчезновение Элис Крид.2009.x264.BDRip.1024x.m4vFormat : MPEG-4Codec ID : M4VFile size : 1.72 GiBDuration : 1h 40mnOverall bit rate mode : VariableOverall bit rate : 2 459 KbpsMovie name : Исчезновение Элис КридPerformer : Дж. БлэйксонGenre : ThrillerRecorded date : UTC 2009-09-12 15:00:00Encoded date : UTC 2013-01-10 09:35:38Tagged date : UTC 2013-01-10 09:37:24Cover : Yesdesc : Двое мужчин укрепляют непривлекательную английскую квартиру так, чтобы она могла использоваться как тюрьма, и затем похищают женщину и привязывают ее к кровати.ldes : Двое мужчин укрепляют непривлекательную английскую квартиру так, чтобы она могла использоваться как тюрьма, и затем похищают женщину и привязывают ее к кровати. До того, как зритель успевает опомниться, он будет погружен в очень неприятную и непростую ситуацию.stik : 9rtng : 0cnID : 403932229xid : RG-Apple:vendor_id:2009-450476iTunEXTC : mpaa|R|400|iTunMOVI : <?xml version="1.0" encoding="UTF-8"?> / <!DOCTYPE plist PUBLIC "-//Apple//DTD PLIST 1.0//EN" "http://www.apple.com/DTDs/PropertyList-1.0.dtd"> / <plist version="1.0"> / <dict> / <key>cast</key> / <array> / <dict> / <key>name</key> / <string>Джемма Артертон</string> / </dict> / <dict> / <key>name</key> / <string>Мартин Компстон</string> / </dict> / <dict> / <key>name</key> / <string>Эдди Марсан</string> / </dict> / </array> / <key>directors</key> / <array> / <dict> / <key>name</key> / <string>Дж. Блэйксон</string> / </dict> / </array> / <key>producers</key> / <array> / <dict> / <key>name</key> / <string>Адриан Стёрз</string> / </dict> / <dict> / <key>name</key> / <string>Стив Кристиан</string> / </dict> / <dict> / <key>name</key> / <string>Эндрю Фингрет</string> / </dict> / </array> / <key>screenwriters</key> / <array> / <dict> / <key>name</key> / <string>Дж. Блэйксон</string> / </dict> / </array> / </dict> / </plist>

Video #1ID : 1Format : AVCFormat/Info : Advanced Video CodecFormat profile : <a href="mailto:High@L3.1Format" class="postLink">High@L3.1Format</a> settings, CABAC : YesFormat settings, ReFrames : 9 framesCodec ID : avc1Codec ID/Info : Advanced Video CodingDuration : 1h 40mnBit rate mode : VariableBit rate : 2 200 KbpsWidth : 1 024 pixelsHeight : 432 pixelsDisplay aspect ratio : 2.40:1Frame rate mode : VariableFrame rate : 23.976 fpsMinimum frame rate : 23.810 fpsMaximum frame rate : 24.272 fpsColor space : YUVChroma subsampling : 4:2:0Bit depth : 8 bitsScan type : ProgressiveBits/(Pixel*Frame) : 0.207Stream size : 1.54 GiB (89%)Writing library : x264 core 120Encoding settings : cabac=1 / ref=9 / deblock=1:0:0 / analyse=0x3:0x113 / me=umh / subme=9 / psy=1 / psy_rd=1.00:0.00 / mixed_ref=1 / me_range=32 / chroma_me=1 / trellis=1 / 8x8dct=1 / cqm=0 / deadzone=21,11 / fast_pskip=1 / chroma_qp_offset=-2 / threads=12 / sliced_threads=0 / nr=0 / decimate=1 / interlaced=0 / bluray_compat=0 / constrained_intra=0 / bframes=6 / b_pyramid=2 / b_adapt=2 / b_bias=0 / direct=1 / weightb=1 / open_gop=0 / weightp=2 / keyint=240 / keyint_min=24 / scenecut=40 / intra_refresh=0 / rc_lookahead=40 / rc=2pass / mbtree=1 / bitrate=2200 / ratetol=1.0 / qcomp=0.60 / qpmin=3 / qpmax=69 / qpstep=4 / cplxblur=20.0 / qblur=0.5 / ip_ratio=1.40 / aq=1:1.00Language : EnglishEncoded date : UTC 2013-01-10 09:35:38Tagged date : UTC 2013-01-10 09:37:09Color primaries : BT.709-5, BT.1361, IEC 61966-2-4, SMPTE RP177Transfer characteristics : BT.709-5, BT.1361Matrix coefficients : BT.709-5, BT.1361, IEC 61966-2-4 709, SMPTE RP177

Video #2ID : 7Format : JPEGCodec ID : jpegDuration : 1h 40mnBit rate mode : VariableBit rate : 440 bpsWidth : 640 pixelsHeight : 270 pixelsDisplay aspect ratio : 2.40:1Frame rate mode : VariableFrame rate : 0.002 fpsMinimum frame rate : 0.001 fpsMaximum frame rate : 0.004 fpsColor space : YUVChroma subsampling : 4:2:0Bit depth : 8 bitsCompression mode : LossyBits/(Pixel*Frame) : 1.273Stream size : 323 KiB (0%)Language : EnglishEncoded date : UTC 2013-01-10 09:37:24Tagged date : UTC 2013-01-10 09:37:24

Audio #1ID : 2Format : AACFormat/Info : Advanced Audio CodecFormat profile : LCCodec ID : 40Duration : 1h 40mnBit rate mode : VariableBit rate : 126 KbpsMaximum bit rate : 191 KbpsChannel(s) : 2 channelsChannel positions : Front: L RSampling rate : 48.0 KHzCompression mode : LossyStream size : 90.5 MiB (5%)Language : RussianEncoded date : UTC 2013-01-10 09:35:38Tagged date : UTC 2013-01-10 09:37:14

Audio #2ID : 3Format : AACFormat/Info : Advanced Audio CodecFormat profile : LCCodec ID : 40Duration : 1h 40mnBit rate mode : VariableBit rate : 125 KbpsMaximum bit rate : 207 KbpsChannel(s) : 2 channelsChannel positions : Front: L RSampling rate : 48.0 KHzCompression mode : LossyStream size : 89.6 MiB (5%)Language : EnglishEncoded date : UTC 2013-01-10 09:35:38Tagged date : UTC 2013-01-10 09:37:19

Text #1ID : 4Format : Timed textMuxing mode : sbtlCodec ID : tx3gDuration : 1h 37mnBit rate mode : VariableBit rate : 53 bpsStream size : 38.2 KiB (0%)Language : RussianEncoded date : UTC 2013-01-10 09:35:39Tagged date : UTC 2013-01-10 09:37:19

Text #2ID : 5Format : Timed textMuxing mode : sbtlCodec ID : tx3gDuration : 1h 39mnBit rate mode : VariableBit rate : 47 bpsStream size : 34.1 KiB (0%)Language : EnglishEncoded date : UTC 2013-01-10 09:35:39Tagged date : UTC 2013-01-10 09:37:19

Text #3ID : 6Format : Apple textCodec ID : textDuration : 1h 40mnBit rate mode : ConstantBit rate : 0 bpsStream size : 288 Bytes (0%)Language : EnglishEncoded date : UTC 2013-01-10 09:37:19Tagged date : UTC 2013-01-10 09:37:19

Menu00:00:00.000 : Chapter 0100:09:06.170 : Chapter 0200:17:08.693 : Chapter 0300:26:23.247 : Chapter 0400:35:30.877 : Chapter 0500:42:32.339 : Chapter 0600:52:42.698 : Chapter 0700:57:32.654 : Chapter 0801:07:41.720 : Chapter 0901:12:52.989 : Chapter 1001:20:57.389 : Chapter 1101:35:43.190 : Chapter 12
x264 [info]: frame I:1625 Avg QP:13.50 size: 78178 PSNR Mean Y:48.96 U:52.44 V:52.94 Avg:49.84 Global:49.49x264 [info]: frame P:31126 Avg QP:16.43 size: 24310 PSNR Mean Y:47.10 U:50.79 V:51.73 Avg:48.02 Global:47.06x264 [info]: frame B:111297 Avg QP:18.54 size: 6897 PSNR Mean Y:45.37 U:50.01 V:51.06 Avg:46.45 Global:46.16x264 [info]: consecutive B-frames: 2.7% 2.6% 6.2% 21.5% 7.6% 55.0% 4.4%x264 [info]: mb I I16..4: 10.6% 70.7% 18.7%x264 [info]: mb P I16..4: 1.6% 10.7% 1.8% P16..4: 34.1% 27.1% 17.0% 0.0% 0.0% skip: 7.7%x264 [info]: mb B I16..4: 0.1% 1.5% 0.2% B16..8: 41.8% 10.9% 3.1% direct: 4.2% skip:38.3% L0:46.2% L1:45.6% BI: 8.2%x264 [info]: 8x8 transform intra:76.7% inter:66.4%x264 [info]: coded y,uvDC,uvAC intra: 90.3% 68.7% 42.4% inter: 25.9% 20.3% 2.7%x264 [info]: i16 v,h,dc,p: 21% 11% 12% 57%x264 [info]: i8 v,h,dc,ddl,ddr,vr,hd,vl,hu: 8% 7% 5% 11% 16% 14% 15% 12% 12%x264 [info]: i4 v,h,dc,ddl,ddr,vr,hd,vl,hu: 8% 7% 3% 10% 17% 15% 15% 12% 13%x264 [info]: i8c dc,h,v,p: 42% 26% 18% 13%x264 [info]: Weighted P-Frames: Y:2.2% UV:1.1%x264 [info]: ref P L0: 47.1% 9.3% 17.5% 7.5% 5.9% 4.3% 3.8% 2.3% 2.2% 0.2% 0.0%x264 [info]: ref B L0: 70.3% 13.0% 6.9% 3.5% 2.7% 2.0% 1.2% 0.4%x264 [info]: ref B L1: 91.8% 8.2%x264 [info]: SSIM Mean Y:0.9811948 (17.257db)x264 [info]: PSNR Mean Y:45.784 U:50.208 V:51.224 Avg:46.829 Global:46.365 kb/s:2198.79


Трекер:  [ 10-Янв-2013 23:03 ]

  

Скачать .torrent

Размер .torrent файла 17 KB


Размер: 1.72 GB
Хэш (hash) релиза: a653cf1ffd9ee93d4a3720b2fd320259b82c6212

Еще никто не оставлял запись к записи скачать торрент [iPad] Исчезновение Элис Крид The Disappearance of Alice Creed . Будь первым!

!Обратная связь