Скачать через торрент [iPad] Океаны Ocеans бесплатно русская версия torrent активатор

Если у вас наблюдаются проблемы со скриншотами, переходом по ссылками, скачиванием торрентов - проблемы в блокировщике рекламы AdBlock. #хорошегоДня!


Статистика раздачи
Размер:  2.75 GB   |    Зарегистрирован:  4 года 9 месяцев   |    .torrent скачан:  34 раза   |   
Раздают:  1  
   
Загрузка...
 
Автор Сообщение

Galfimbul

avatar Galfimbul


Океаны / Ocеans

«Великое зрелище от великого Создателя»

Год выпуска: 2009
Страна: Франция, Испания, Швейцария, Монако
Студия: Disney, Buena Vista
Жанр: Драма, документальный
Продолжительность: 01:43:51
Рейтинг MPAA: G
Перевод: Профессиональный (дублированный)
Оригинальная аудиодорожка: есть
Cубтитры: нет

Режиссёр: Жак Перрен, Жак Клюзо/ Jacques Perrin, Jacques Cluzaud
Сценарий: Кристоф Чейссон, Жак Клюзо, Лорен Деба
Продюссер: Николя Моверне, Жак Перрен, Джэйк Эбертс

В ролях: Пирс Броснан, Жак Перрен, Педро Армендарис мл., Риэ Миядзава, Альдо, Ланселот Перрин, Маноло Гарсиа

Описание:
Почти три четверти земной поверхности покрыты водой. «Океаны» предлагают зрителю заглянуть в волшебный подводный мир, все еще остающимся загадкой для человека...

Доп. информация:


Качество исходника: Blu-Ray - Океаны / Oceans / 2009 / ДБ / Blu-Ray (1080p)
Качество: BDRip
Разрешение: 1024х432
Формат: MP4
Видео: H.264, 2,40:1 , 3500kbit/s; 23.976fps

Аудио 1: Russian/Dub, AAC, 138kbit/s; 2ch; 48KHz
Аудио 2: French/Original, AAC, 144kbit/s; 2ch; 48KHz
Media Type: MovieXID: Apple:vendor_id:2009-460089Content ID: 377453761ScreenWriters: Кристоф Чейссон, Жак Клюзо, Лорен ДебаProducers: Николя Моверне, Жак Перрен, Джэйк ЭбертсDirector: Жак Перрен, Жак КлюзоCast: Пирс Броснан, Жак Перрен, Педро Армендарис мл., Риэ Миядзава, Альдо, Ланселот Перрин, Маноло ГарсиаRating: GLong Description: Почти три четверти земной поверхности покрыты водой. «Океаны» предлагают зрителю заглянуть в волшебный подводный мир, все еще остающимся загадкой для человека...Description: Почти три четверти земной поверхности покрыты водой.Release Date: 2009-10-17T07:00:00ZGenre: DocumentaryArtist: Жак Перрен, Жак КлюзоName: Океаны
ОбщееПолное имя : C:\Handbrake\Океаны.2009.x264.BDRip.1024x.m4vФормат : MPEG-4Идентификатор кодека : M4VРазмер файла : 2,75 ГбайтПродолжительность : 1 ч. 43 м.Режим общего битрейта : ПеременныйОбщий поток : 3794 Кбит/секНазвание фильма : ОкеаныИсполнитель : Жак Перрен, Жак КлюзоЖанр : DocumentaryДата записи : 2009-10-17T07:00:00ZДата кодирования : UTC 2013-01-10 08:52:13Дата пометки : UTC 2013-01-10 08:58:39Программа кодирования : MkvToMp4 []www.mkvtomp4.ru] version 0.221aОбложка : Yesdesc : Почти три четверти земной поверхности покрыты водой.ldes : Почти три четверти земной поверхности покрыты водой. «Океаны» предлагают зрителю заглянуть в волшебный подводный мир, все еще остающимся загадкой для человека...hdvd : 0stik : 9akID : -1sfID : 0cnID : 377453761xid : Apple:vendor_id:2009-460089iTunEXTC : mpaa|G|100|iTunMOVI : <?xml version="1.0" encoding="UTF-8"?> / <!DOCTYPE plist PUBLIC "-//Apple//DTD PLIST 1.0//EN" "http://www.apple.com/DTDs/PropertyList-1.0.dtd"> / <plist version="1.0"> / <dict> / <key>cast</key> / <array> / <dict> / <key>name</key> / <string>Пирс Броснан</string> / </dict> / <dict> / <key>name</key> / <string>Жак Перрен</string> / </dict> / <dict> / <key>name</key> / <string>Педро Армендарис мл.</string> / </dict> / <dict> / <key>name</key> / <string>Риэ Миядзава</string> / </dict> / <dict> / <key>name</key> / <string>Альдо</string> / </dict> / <dict> / <key>name</key> / <string>Ланселот Перрин</string> / </dict> / <dict> / <key>name</key> / <string>Маноло Гарсиа</string> / </dict> / </array> / <key>directors</key> / <array> / <dict> / <key>name</key> / <string>Жак Перрен</string> / </dict> / <dict> / <key>name</key> / <string>Жак Клюзо</string> / </dict> / </array> / <key>producers</key> / <array> / <dict> / <key>name</key> / <string>Николя Моверне</string> / </dict> / <dict> / <key>name</key> / <string>Жак Перрен</string> / </dict> / <dict> / <key>name</key> / <string>Джэйк Эбертс</string> / </dict> / </array> / <key>screenwriters</key> / <array> / <dict> / <key>name</key> / <string>Кристоф Чейссон</string> / </dict> / <dict> / <key>name</key> / <string>Жак Клюзо</string> / </dict> / <dict> / <key>name</key> / <string>Лорен Деба</string> / </dict> / </array> / </dict> / </plist>

ВидеоИдентификатор : 1Формат : AVCФормат/Информация : Advanced Video CodecПрофиль формата : <a href="mailto:High@L3.1Параметр" class="postLink">High@L3.1Параметр</a> CABAC формата : ДаПараметр ReFrames формата : 9 кадровИдентификатор кодека : avc1Идентификатор кодека/Информация : Advanced Video CodingПродолжительность : 1 ч. 43 м.Битрейт : 3500 Кбит/секМаксимальный битрейт : 16,6 Мбит/секШирина : 1024 пикселяВысота : 432 пикселяСоотношение сторон : 2,40:1Режим частоты кадров : ПеременныйЧастота кадров : 23,976 кадра/секМинимальная частота кадров : 11,990 кадров/секМаксимальная частота кадров : 25,510 кадров/секЦветовое пространство : YUVСубдискретизация насыщенности : 4:2:0Битовая глубина : 8 битТип развёртки : ПрогрессивнаяБит/(Пиксели*Кадры) : 0.330Размер потока : 2,54 Гбайт (92%)Библиотека кодирования : x264 core 120Настройки программы : cabac=1 / ref=9 / deblock=1:0:0 / analyse=0x3:0x113 / me=umh / subme=9 / psy=1 / psy_rd=1.00:0.00 / mixed_ref=1 / me_range=32 / chroma_me=1 / trellis=1 / 8x8dct=1 / cqm=0 / deadzone=21,11 / fast_pskip=1 / chroma_qp_offset=-2 / threads=12 / sliced_threads=0 / nr=0 / decimate=1 / interlaced=0 / bluray_compat=0 / constrained_intra=0 / bframes=6 / b_pyramid=2 / b_adapt=2 / b_bias=0 / direct=1 / weightb=1 / open_gop=0 / weightp=2 / keyint=240 / keyint_min=24 / scenecut=40 / intra_refresh=0 / rc_lookahead=40 / rc=2pass / mbtree=1 / bitrate=3500 / ratetol=1.0 / qcomp=0.60 / qpmin=3 / qpmax=69 / qpstep=4 / cplxblur=20.0 / qblur=0.5 / ip_ratio=1.40 / aq=1:1.00Язык : EnglishДата кодирования : UTC 2013-01-10 08:52:13Дата пометки : UTC 2013-01-10 08:54:17Основные цвета : BT.709Характеристики трансфера : BT.709Коэффициенты матрицы : BT.709

Аудио #1Идентификатор : 2Формат : AACФормат/Информация : Advanced Audio CodecПрофиль формата : LCИдентификатор кодека : 40Продолжительность : 1 ч. 43 м.Вид битрейта : ПеременныйБитрейт : 138 Кбит/секМаксимальный битрейт : 224 Кбит/секКаналы : 2 каналаРасположение каналов : Front: L RЧастота : 48,0 КГцМетод сжатия : С потерямиРазмер потока : 102 Мбайт (4%)Язык : RussianДата кодирования : UTC 2013-01-10 08:53:30Дата пометки : UTC 2013-01-10 08:54:17

Аудио #2Идентификатор : 3Формат : AACФормат/Информация : Advanced Audio CodecПрофиль формата : LCИдентификатор кодека : 40Продолжительность : 1 ч. 43 м.Вид битрейта : ПеременныйБитрейт : 144 Кбит/секМаксимальный битрейт : 229 Кбит/секКаналы : 2 каналаРасположение каналов : Front: L RЧастота : 48,0 КГцМетод сжатия : С потерямиРазмер потока : 106 Мбайт (4%)Язык : FrenchДата кодирования : UTC 2013-01-10 08:53:51Дата пометки : UTC 2013-01-10 08:54:17

ТекстИдентификатор : 4Формат : Apple textИдентификатор кодека : textПродолжительность : 1 ч. 43 м.Вид битрейта : ПеременныйБитрейт : 1 бит/секРазмер потока : 567 байт (0%)Дата кодирования : UTC 2013-01-10 08:58:39Дата пометки : UTC 2013-01-10 08:58:39
x264 [info]: frame I:811 Avg QP:17.80 size: 74882 PSNR Mean Y:45.28 U:49.44 V:48.56 Avg:46.05 Global:45.31x264 [info]: frame P:40408 Avg QP:19.78 size: 29666 PSNR Mean Y:43.06 U:47.50 V:46.81 Avg:43.81 Global:42.99x264 [info]: frame B:108179 Avg QP:22.38 size: 13561 PSNR Mean Y:41.68 U:47.37 V:46.30 Avg:42.74 Global:41.99x264 [info]: consecutive B-frames: 4.2% 6.0% 7.1% 46.9% 12.0% 20.5% 3.2%x264 [info]: mb I I16..4: 11.8% 65.6% 22.5%x264 [info]: mb P I16..4: 3.1% 14.0% 4.5% P16..4: 33.7% 21.8% 14.4% 0.0% 0.0% skip: 8.5%x264 [info]: mb B I16..4: 0.2% 3.6% 1.6% B16..8: 43.0% 13.1% 5.2% direct: 6.7% skip:26.7% L0:42.6% L1:42.9% BI:14.4%x264 [info]: 8x8 transform intra:65.5% inter:65.7%x264 [info]: coded y,uvDC,uvAC intra: 89.4% 82.5% 54.9% inter: 39.1% 32.1% 5.0%x264 [info]: i16 v,h,dc,p: 57% 18% 6% 20%x264 [info]: i8 v,h,dc,ddl,ddr,vr,hd,vl,hu: 3% 12% 2% 10% 16% 12% 19% 9% 17%x264 [info]: i4 v,h,dc,ddl,ddr,vr,hd,vl,hu: 3% 13% 2% 8% 14% 10% 20% 9% 22%x264 [info]: i8c dc,h,v,p: 37% 35% 12% 15%x264 [info]: Weighted P-Frames: Y:11.4% UV:5.0%x264 [info]: ref P L0: 48.2% 14.7% 14.4% 6.3% 4.8% 3.9% 3.4% 2.0% 1.9% 0.4% 0.0%x264 [info]: ref B L0: 76.0% 10.4% 5.5% 2.8% 2.1% 1.8% 1.0% 0.4%x264 [info]: ref B L1: 93.9% 6.1%x264 [info]: SSIM Mean Y:0.9668116 (14.790db)x264 [info]: PSNR Mean Y:42.074 U:47.415 V:46.451 Avg:43.048 Global:42.254 kb/s:3500.34


Трекер:  [ 10-Янв-2013 23:03 ]

  

Скачать .torrent

Размер .torrent файла 14 KB


Размер: 2.75 GB
Хэш (hash) релиза: be4b7a23d605b093e6aee8c500ceff274270915e

Еще никто не оставлял запись к записи скачать торрент [iPad] Океаны Ocеans . Будь первым!

!Обратная связь